<?xml version="1.0" standalone="no"?>
<!DOCTYPE svg PUBLIC "-//W3C//DTD SVG 1.1//EN" "http://www.w3.org/Graphics/SVG/1.1/DTD/svg11.dtd" >
<svg xmlns="http://www.w3.org/2000/svg" xmlns:xlink="http://www.w3.org/1999/xlink" version="1.1">
<metadata>
Created by FontForge 20201107 at Wed Oct 14 11:53:07 2009
 By 
(c)2009 Commercial Type.
</metadata>
<defs>
<font id="Graphik-Black" horiz-adv-x="600" >
  <font-face 
    font-family="Graphik Black"
    font-weight="900"
    font-stretch="normal"
    units-per-em="1000"
    panose-1="2 11 10 3 3 2 2 6 2 3"
    ascent="826"
    descent="-174"
    x-height="523"
    cap-height="715"
    bbox="-246 -233 1217 1142"
    underline-thickness="50"
    underline-position="-200"
    unicode-range="U+0020-FB02"
  />
<missing-glyph horiz-adv-x="523" 
 />
    <glyph glyph-name="f_f" unicode="ff" horiz-adv-x="731" 
d="M75 0v391h-64v132h64v33q0 98 57 147t156 49q41 0 83 -11v-142q-21 7 -44 7q-55 0 -55 -51v-32h141v39q0 98 58 147t157 49q46 0 85 -11v-141q-24 6 -47 6q-28 0 -42 -14t-14 -37v-38h102v-132h-102v-391h-197v391h-141v-391h-197z" />
    <glyph glyph-name=".notdef" horiz-adv-x="523" 
 />
    <glyph glyph-name=".null" horiz-adv-x="0" 
 />
    <glyph glyph-name="nonmarkingreturn" horiz-adv-x="333" 
 />
    <glyph glyph-name="space" unicode=" " horiz-adv-x="185" 
 />
    <glyph glyph-name="exclam" unicode="!" horiz-adv-x="342" 
d="M171 -12q-47 0 -80.5 30.5t-33.5 74.5t33.5 75t80.5 31t81 -31t34 -75q0 -43 -34 -74t-81 -31zM89 241l-28 474h221l-29 -474h-164z" />
    <glyph glyph-name="quotedbl" unicode="&#x22;" horiz-adv-x="478" 
d="M59 434l-22 281h183l-22 -281h-139zM280 434l-22 281h183l-22 -281h-139z" />
    <glyph glyph-name="numbersign" unicode="#" horiz-adv-x="589" 
d="M274 99l20 135h-57l-20 -135h-130l20 135h-66v154h89l9 65h-75v146h97l18 116h130l-18 -116h56l18 116h131l-18 -116h70v-146h-92l-9 -65h78v-154h-101l-20 -135h-130zM269 453l-9 -65h56l10 65h-57z" />
    <glyph glyph-name="dollar" unicode="$" horiz-adv-x="651" 
d="M289 -135v125q-128 9 -196 71t-73 166h199q7 -70 70 -85v130q-138 19 -196.5 71t-58.5 157q0 94 68.5 155t186.5 69v89h81v-90q233 -19 249 -220h-195q-6 55 -54 68v-123q127 -17 193 -66t66 -152q0 -100 -64.5 -165.5t-194.5 -74.5v-125h-81zM227 517q0 -24 14 -37.5
t48 -20.5v115q-62 -11 -62 -57zM430 203q0 22 -13.5 34.5t-46.5 20.5v-118q60 13 60 63z" />
    <glyph glyph-name="percent" unicode="%" horiz-adv-x="835" 
d="M218 472q25 0 38.5 19t13.5 53q0 71 -52 71q-25 0 -39 -18.5t-14 -51.5q0 -73 53 -73zM217 360q-91 0 -142.5 52t-51.5 132q0 77 55.5 128t139.5 51q83 0 138 -49.5t55 -126.5q0 -81 -52.5 -134t-141.5 -53zM115 0l507 715h102l-508 -715h-101zM618 99q25 0 38.5 19
t13.5 53q0 71 -52 71q-25 0 -39 -18.5t-14 -51.5q0 -73 53 -73zM617 -13q-90 0 -141.5 51.5t-51.5 132.5q0 77 55 128t139 51t139 -49.5t55 -126.5q0 -81 -53 -134t-142 -53z" />
    <glyph glyph-name="ampersand" unicode="&#x26;" horiz-adv-x="777" 
d="M764 373l-115 -227l119 -146h-255l-37 46q-80 -59 -192 -59q-118 0 -187 58t-69 162q0 133 156 206q-40 59 -40 121q0 90 68.5 140.5t172.5 50.5q95 0 160 -44.5t65 -125.5q0 -115 -142 -176l79 -97l46 91h171zM321 145q33 0 57 22l-105 127q-36 -27 -36 -66
q0 -37 21.5 -60t62.5 -23zM335 531q0 -31 39 -73q64 32 64 78q0 23 -13.5 37.5t-35.5 14.5q-24 0 -39 -15.5t-15 -41.5z" />
    <glyph glyph-name="quotesingle" unicode="'" horiz-adv-x="264" 
d="M59 434l-22 281h190l-22 -281h-146z" />
    <glyph glyph-name="parenleft" unicode="(" horiz-adv-x="362" 
d="M202 -148q-167 200 -167 462q0 261 167 461h150q-130 -210 -130 -461q0 -252 130 -462h-150z" />
    <glyph glyph-name="parenright" unicode=")" horiz-adv-x="362" 
d="M10 -147q130 210 130 461q0 252 -130 462h150q167 -200 167 -462q0 -261 -167 -461h-150z" />
    <glyph glyph-name="asterisk" unicode="*" horiz-adv-x="444" 
d="M169 363l-117 83l90 86l-116 10l37 134l108 -54l-26 121h154l-26 -121l108 54l36 -134l-116 -10l90 -86l-117 -83l-53 114z" />
    <glyph glyph-name="plus" unicode="+" horiz-adv-x="579" 
d="M211 79v190h-173v142h173v189h157v-189h174v-142h-174v-190h-157z" />
    <glyph glyph-name="comma" unicode="," horiz-adv-x="311" 
d="M128 -122l-115 43l81 272l182 -63z" />
    <glyph glyph-name="hyphen" unicode="-" horiz-adv-x="390" 
d="M49 214v146h292v-146h-292z" />
    <glyph glyph-name="period" unicode="." horiz-adv-x="302" 
d="M150 -12q-47 0 -78.5 31t-31.5 77q0 45 31.5 76t78.5 31q48 0 80 -31t32 -76q0 -46 -32 -77t-80 -31z" />
    <glyph glyph-name="slash" unicode="/" horiz-adv-x="440" 
d="M-30 -148l322 924h155l-322 -924h-155z" />
    <glyph glyph-name="zero" unicode="0" horiz-adv-x="741" 
d="M373 162q59 0 85 44t26 139v26q0 95 -27 139t-86 44q-60 0 -87 -44t-27 -138v-28q0 -95 27 -138.5t89 -43.5zM366 -13q-156 0 -245 93.5t-89 262.5v28q0 167 95 261t243 94q150 0 244.5 -89.5t94.5 -260.5v-27q0 -171 -92.5 -266.5t-250.5 -95.5z" />
    <glyph glyph-name="one" unicode="1" horiz-adv-x="459" 
d="M163 0v492l-132 -79v188l164 114h195v-715h-227z" />
    <glyph glyph-name="two" unicode="2" horiz-adv-x="626" 
d="M7 0v31l243 258q61 65 90.5 110t29.5 86q0 32 -16.5 51.5t-48.5 19.5q-36 0 -56 -25t-27 -83h-204q4 137 82.5 207.5t215.5 70.5q133 0 205 -63.5t72 -167.5q0 -70 -33.5 -127t-99.5 -121l-82 -79h221v-168h-592z" />
    <glyph glyph-name="three" unicode="3" horiz-adv-x="661" 
d="M333 -13q-296 0 -307 253h201q8 -91 92 -91q81 0 81 72q0 73 -84 73h-57v137h54q87 0 87 72q0 29 -18.5 45.5t-53.5 16.5q-72 0 -84 -84h-200q8 114 81 179.5t209 65.5q130 0 204 -53t74 -145q0 -119 -123 -154q63 -11 101.5 -53.5t38.5 -105.5q0 -105 -76.5 -166.5
t-219.5 -61.5z" />
    <glyph glyph-name="four" unicode="4" horiz-adv-x="689" 
d="M360 0v134h-346v86l294 495h270v-426h90v-155h-90v-134h-218zM222 289h144v255z" />
    <glyph glyph-name="five" unicode="5" horiz-adv-x="639" 
d="M311 -13q-141 0 -213.5 67t-74.5 176h205q5 -36 23 -54.5t59 -18.5q37 0 54.5 24.5t17.5 63.5q0 43 -22 66.5t-64 23.5q-72 0 -109 -48h-139l18 428h497v-164h-335l-5 -146q54 80 171 80q100 0 157.5 -64t57.5 -180t-79 -185t-219 -69z" />
    <glyph glyph-name="six" unicode="6" horiz-adv-x="685" 
d="M358 -13q-168 0 -247 94.5t-79 260.5v19q0 168 92.5 266.5t235.5 98.5q260 0 283 -219h-208q-4 25 -18.5 38.5t-46.5 13.5q-108 0 -114 -171q27 40 64 60.5t100 20.5q102 0 170 -59t68 -170q0 -114 -81 -183.5t-219 -69.5zM354 146q38 0 61 26t23 67q0 40 -22.5 65.5
t-60.5 25.5t-61.5 -26t-23.5 -65q0 -41 23 -67t61 -26z" />
    <glyph glyph-name="seven" unicode="7" horiz-adv-x="586" 
d="M105 0l192 531h-274v184h557v-23l-244 -692h-231z" />
    <glyph glyph-name="eight" unicode="8" horiz-adv-x="666" 
d="M333 -13q-145 0 -226.5 55.5t-81.5 158.5q0 61 33 106.5t97 68.5q-100 44 -100 146q0 95 80 149.5t200 54.5q124 0 201.5 -53.5t77.5 -148.5q0 -103 -100 -147q127 -44 127 -170q0 -103 -82 -161.5t-226 -58.5zM334 145q39 0 62.5 22t23.5 59t-23.5 59.5t-62.5 22.5
t-63 -22t-24 -60q0 -37 24 -59t63 -22zM335 431q33 0 55 20t22 52t-22.5 52t-54.5 20t-54 -20t-22 -52t22 -52t54 -20z" />
    <glyph glyph-name="nine" unicode="9" horiz-adv-x="685" 
d="M327 -12q-130 0 -205 56.5t-85 162.5h207q9 -52 71 -52q58 0 84.5 42t28.5 127q-27 -40 -61.5 -61t-96.5 -21q-108 0 -175.5 59t-67.5 171q0 114 81.5 184.5t220.5 70.5q160 0 242 -97t82 -259v-20q0 -174 -84.5 -268.5t-241.5 -94.5zM326 385q38 0 62 25.5t24 64.5
q0 41 -23.5 67t-62.5 26q-38 0 -61 -26.5t-23 -66.5q0 -39 23 -64.5t61 -25.5z" />
    <glyph glyph-name="colon" unicode=":" horiz-adv-x="308" 
d="M152 -12q-47 0 -78 31t-31 77q0 45 31 76t78 31q48 0 80.5 -31t32.5 -76q0 -46 -32 -77t-81 -31zM152 272q-47 0 -78 31t-31 76t31 76.5t78 31.5q48 0 80.5 -31.5t32.5 -76.5t-32.5 -76t-80.5 -31z" />
    <glyph glyph-name="semicolon" unicode=";" horiz-adv-x="326" 
d="M123 -122l-115 43l81 272l182 -63zM178 272q-47 0 -78.5 31t-31.5 76t31.5 76.5t78.5 31.5q48 0 80 -31.5t32 -76.5t-32 -76t-80 -31z" />
    <glyph glyph-name="less" unicode="&#x3c;" horiz-adv-x="514" 
d="M468 53l-428 251v37l428 251v-178l-177 -90l177 -99v-172z" />
    <glyph glyph-name="equal" unicode="=" horiz-adv-x="570" 
d="M38 162v131h493v-131h-493zM38 361v131h493v-131h-493z" />
    <glyph glyph-name="greater" unicode="&#x3e;" horiz-adv-x="514" 
d="M46 54v177l177 91l-177 99v172l428 -252v-36z" />
    <glyph glyph-name="question" unicode="?" horiz-adv-x="569" 
d="M167 241v13q0 35 17 69t33 51t47 46q22 21 32.5 32t21 28.5t10.5 33.5q0 52 -53 52q-28 0 -46 -21t-23 -59h-192q4 116 79 178t198 62q119 0 185 -50t66 -143q0 -77 -68 -147q-13 -13 -37.5 -35t-38 -35t-27 -31t-17.5 -35v-9h-187zM261 -12q-49 0 -82.5 30.5t-33.5 74.5
t33.5 75t82.5 31q47 0 80.5 -31t33.5 -75t-33.5 -74.5t-80.5 -30.5z" />
    <glyph glyph-name="at" unicode="@" horiz-adv-x="922" 
d="M461 -160q-199 0 -317 116.5t-118 293.5q0 129 64.5 231.5t167.5 156t222 53.5q181 0 298.5 -100t117.5 -264q0 -140 -64 -208.5t-157 -68.5q-129 0 -153 80q-39 -82 -131 -82q-74 0 -119 51t-45 137q0 105 57 170t141 65q80 0 107 -57l7 49h159l-34 -276q-10 -64 42 -64
q46 0 77 51.5t31 155.5q0 131 -91 211t-241 80q-158 0 -264 -102.5t-106 -270.5q0 -150 91.5 -244t260.5 -94q84 0 153 25.5t108 64.5h94q-51 -73 -147 -116.5t-211 -43.5zM444 175q31 0 51.5 31t20.5 78q0 63 -58 63q-30 0 -49 -29t-19 -74q0 -30 14 -49.5t40 -19.5z" />
    <glyph glyph-name="A" unicode="A" horiz-adv-x="760" 
d="M9 0l225 715h293l224 -715h-240l-33 119h-226l-32 -119h-211zM366 532l-71 -259h141z" />
    <glyph glyph-name="B" unicode="B" horiz-adv-x="690" 
d="M65 0v715h338q125 0 184.5 -51t59.5 -136v-4q0 -125 -124 -154q66 -12 104.5 -53.5t38.5 -113.5v-4q0 -199 -265 -199h-336zM286 149h72q85 0 85 75v4q0 73 -90 73h-67v-152zM286 436h69q42 0 60 15t18 48v4q0 64 -79 64h-68v-131z" />
    <glyph glyph-name="C" unicode="C" horiz-adv-x="764" 
d="M408 -13q-188 0 -284 98t-96 268v8q0 164 104.5 264.5t265.5 100.5q149 0 238.5 -70t101.5 -212h-234q-11 103 -105 103q-62 0 -97 -47.5t-35 -137.5v-8q0 -89 35 -137t101 -48q106 0 118 105h226q-9 -138 -101 -212.5t-238 -74.5z" />
    <glyph glyph-name="D" unicode="D" horiz-adv-x="751" 
d="M292 174h38q83 0 120.5 43t37.5 137v8q0 97 -37.5 138t-121.5 41h-37v-367zM65 0v715h273q191 0 288.5 -89t97.5 -260v-7q0 -172 -99 -265.5t-287 -93.5h-273z" />
    <glyph glyph-name="E" unicode="E" horiz-adv-x="620" 
d="M65 0v715h508v-174h-282v-101h224v-159h-224v-107h298v-174h-524z" />
    <glyph glyph-name="F" unicode="F" horiz-adv-x="585" 
d="M65 0v715h495v-175h-268v-133h216v-167h-216v-240h-227z" />
    <glyph glyph-name="G" unicode="G" horiz-adv-x="791" 
d="M407 -13q-181 0 -280.5 100.5t-99.5 265.5v8q0 162 107.5 263.5t272.5 101.5q141 0 236 -67.5t104 -202.5h-224q-12 92 -115 92q-68 0 -106.5 -50.5t-38.5 -140.5v-8q0 -190 151 -190q63 0 94 25.5t35 65.5h-122v149h343v-92q0 -140 -92 -230t-265 -90z" />
    <glyph glyph-name="H" unicode="H" horiz-adv-x="794" 
d="M65 0v715h227v-264h210v264h227v-715h-227v275h-210v-275h-227z" />
    <glyph glyph-name="I" unicode="I" horiz-adv-x="366" 
d="M68 0v715h229v-715h-229z" />
    <glyph glyph-name="J" unicode="J" horiz-adv-x="489" 
d="M168 -9q-86 0 -136 25v167q43 -13 85 -13q90 0 90 93v452h227v-453q0 -271 -266 -271z" />
    <glyph glyph-name="K" unicode="K" horiz-adv-x="745" 
d="M65 0v715h227v-271l198 271h235l-251 -330l265 -385h-261l-186 286v-286h-227z" />
    <glyph glyph-name="L" unicode="L" horiz-adv-x="582" 
d="M65 0v715h227v-540h260v-175h-487z" />
    <glyph glyph-name="M" unicode="M" horiz-adv-x="958" 
d="M65 0v715h294l121 -347l123 347h288v-715h-225v422l-163 -422h-76l-160 422v-422h-202z" />
    <glyph glyph-name="N" unicode="N" horiz-adv-x="787" 
d="M65 0v715h254l203 -378v378h199v-715h-217l-239 428v-428h-200z" />
    <glyph glyph-name="O" unicode="O" horiz-adv-x="820" 
d="M411 165q67 0 106.5 50t39.5 139v8q0 89 -39.5 138t-108.5 49q-67 0 -106 -48.5t-39 -138.5v-8q0 -90 39.5 -139.5t107.5 -49.5zM405 -13q-174 0 -276 101t-102 265v8q0 163 109 264t273 101q169 0 276.5 -96.5t107.5 -262.5v-8q0 -168 -106 -270t-282 -102z" />
    <glyph glyph-name="P" unicode="P" horiz-adv-x="664" 
d="M65 0v715h285q294 0 294 -245v-4q0 -112 -73 -172.5t-211 -60.5h-69v-233h-226zM291 385h47q91 0 91 80v4q0 77 -90 77h-48v-161z" />
    <glyph glyph-name="Q" unicode="Q" horiz-adv-x="820" 
d="M605 -126l-118 120q-45 -7 -82 -7q-174 0 -276 101t-102 265v8q0 163 109 263.5t273 100.5q169 0 277 -96t108 -262v-8q0 -190 -132 -292l67 -67zM263 354q0 -146 90 -183l110 98l55 -57q39 51 39 143v8q0 89 -39.5 137.5t-108.5 48.5q-68 0 -107 -48t-39 -139v-8z" />
    <glyph glyph-name="R" unicode="R" horiz-adv-x="710" 
d="M65 0v715h292q148 0 223.5 -58.5t75.5 -173.5v-4q0 -132 -121 -187l163 -292h-238l-133 245h-36v-245h-226zM291 391h53q93 0 93 78v4q0 38 -22.5 55t-69.5 17h-54v-154z" />
    <glyph glyph-name="S" unicode="S" horiz-adv-x="653" 
d="M334 -13q-307 0 -315 242h215q7 -82 100 -82q39 0 59 16t20 43q0 28 -21.5 40.5t-80.5 20.5q-154 17 -215 68t-61 162q0 101 77.5 164.5t208.5 63.5q270 0 288 -228h-210q-8 69 -78 69q-34 0 -52.5 -14t-18.5 -38q0 -26 21 -39.5t79 -20.5q145 -15 212.5 -63t67.5 -161
q0 -104 -78.5 -173.5t-217.5 -69.5z" />
    <glyph glyph-name="T" unicode="T" horiz-adv-x="629" 
d="M200 0v541h-180v174h589v-174h-181v-541h-228z" />
    <glyph glyph-name="U" unicode="U" horiz-adv-x="776" 
d="M388 -13q-158 0 -242.5 78t-84.5 230v420h226v-411q0 -74 21.5 -106.5t79.5 -32.5t79 33t21 107v410h228v-418q0 -157 -86.5 -233.5t-241.5 -76.5z" />
    <glyph glyph-name="V" unicode="V" horiz-adv-x="741" 
d="M245 0l-236 715h245l133 -479l133 479h212l-231 -715h-256z" />
    <glyph glyph-name="W" unicode="W" horiz-adv-x="1009" 
d="M176 0l-166 715h229l82 -427l86 427h197l97 -432l87 432h210l-166 -715h-229l-100 427l-101 -427h-226z" />
    <glyph glyph-name="X" unicode="X" horiz-adv-x="772" 
d="M18 0l218 368l-202 347h259l100 -201l98 201h232l-187 -339l219 -376h-258l-123 235l-123 -235h-233z" />
    <glyph glyph-name="Y" unicode="Y" horiz-adv-x="692" 
d="M237 0v305l-232 410h246l109 -224l110 224h217l-222 -409v-306h-228z" />
    <glyph glyph-name="Z" unicode="Z" horiz-adv-x="627" 
d="M10 0v24l286 521h-246v170h563v-24l-283 -520h266v-171h-586z" />
    <glyph glyph-name="bracketleft" unicode="[" horiz-adv-x="419" 
d="M61 -148v924h321v-142h-122v-640h122v-142h-321z" />
    <glyph glyph-name="backslash" unicode="\" horiz-adv-x="440" 
d="M315 -148l-322 924h154l323 -924h-155z" />
    <glyph glyph-name="bracketright" unicode="]" horiz-adv-x="419" 
d="M38 -148v142h120v640h-120v142h319v-924h-319z" />
    <glyph glyph-name="asciicircum" unicode="^" horiz-adv-x="535" 
d="M19 391l164 324h169l164 -324h-166l-84 165l-85 -165h-162z" />
    <glyph glyph-name="underscore" unicode="_" horiz-adv-x="441" 
d="M-1 -161v89h443v-89h-443z" />
    <glyph glyph-name="grave" unicode="`" horiz-adv-x="400" 
d="M136 578l-104 169h193l52 -169h-141z" />
    <glyph glyph-name="a" unicode="a" horiz-adv-x="585" 
d="M198 -13q-77 0 -127.5 39.5t-50.5 118.5q0 90 70.5 130.5t210.5 40.5h45v9q0 38 -12 57t-49 19q-56 0 -62 -56h-184q6 94 74.5 143.5t183.5 49.5q117 0 180.5 -49.5t63.5 -150.5v-338h-190v60q-45 -73 -153 -73zM269 119q34 0 55.5 17.5t21.5 46.5v27h-42q-50 0 -70 -11
t-20 -39q0 -41 55 -41z" />
    <glyph glyph-name="b" unicode="b" horiz-adv-x="646" 
d="M403 -13q-56 0 -97.5 25t-61.5 68v-80h-197v750h197v-303q53 90 160 90q95 0 157 -70.5t62 -201.5v-8q0 -131 -62.5 -200.5t-157.5 -69.5zM331 137q92 0 92 122v8q0 124 -93 124q-44 0 -67.5 -32t-23.5 -92v-8q0 -122 92 -122z" />
    <glyph glyph-name="c" unicode="c" horiz-adv-x="586" 
d="M300 -13q-123 0 -200.5 69t-77.5 198v8q0 129 80 202t203 73q109 0 182 -52.5t80 -167.5h-185q-10 69 -72 69q-88 0 -88 -120v-8q0 -128 91 -128q34 0 55 20.5t25 58.5h177q-4 -104 -72.5 -163t-197.5 -59z" />
    <glyph glyph-name="d" unicode="d" horiz-adv-x="645" 
d="M241 -13q-94 0 -156 69t-62 200v8q0 131 62 202t156 71q113 0 160 -86v299h197v-750h-197v84q-21 -43 -62.5 -70t-97.5 -27zM314 137q92 0 92 123v8q0 59 -23.5 91t-67.5 32q-92 0 -92 -124v-8q0 -122 91 -122z" />
    <glyph glyph-name="e" unicode="e" horiz-adv-x="604" 
d="M311 -13q-129 0 -209.5 71t-80.5 197v8q0 124 83.5 199.5t206.5 75.5q118 0 195 -69t77 -203v-48h-363q4 -47 30 -72t68 -25q71 0 82 56h184q-12 -91 -81 -140.5t-192 -49.5zM221 321h172q-3 90 -82 90q-37 0 -60.5 -23t-29.5 -67z" />
    <glyph glyph-name="f" unicode="f" horiz-adv-x="393" 
d="M75 0v391h-64v132h64v39q0 98 58 147t157 49q46 0 85 -11v-141q-24 6 -47 6q-28 0 -42 -14t-14 -37v-38h102v-132h-102v-391h-197z" />
    <glyph glyph-name="g" unicode="g" horiz-adv-x="644" 
d="M299 -194q-258 0 -280 198h195q14 -62 86 -62q100 0 100 100v81q-21 -40 -62.5 -66t-96.5 -26q-94 0 -156.5 65.5t-62.5 182.5v8q0 114 63 182.5t155 68.5q112 0 160 -87v72h197v-478q0 -117 -76 -178t-222 -61zM314 171q43 0 67.5 29t24.5 79v7q0 49 -24 77.5t-68 28.5
t-68 -28.5t-24 -78.5v-8q0 -49 24 -77.5t68 -28.5z" />
    <glyph glyph-name="h" unicode="h" horiz-adv-x="629" 
d="M47 0v750h197v-311q52 98 173 98q77 0 122.5 -49t45.5 -144v-344h-197v300q0 80 -66 80q-78 0 -78 -91v-289h-197z" />
    <glyph glyph-name="i" unicode="i" horiz-adv-x="303" 
d="M53 0v523h196v-523h-196zM151 562q-46 0 -76.5 28t-30.5 71t30.5 71.5t76.5 28.5q45 0 75.5 -28.5t30.5 -71.5t-30.5 -71t-75.5 -28z" />
    <glyph glyph-name="j" unicode="j" horiz-adv-x="303" 
d="M-9 -183v141q32 2 46.5 15t14.5 43v507h197v-512q0 -95 -57 -144.5t-201 -49.5zM151 562q-46 0 -76.5 28t-30.5 71t30.5 71.5t76.5 28.5q45 0 75.5 -28.5t30.5 -71.5t-30.5 -71t-75.5 -28z" />
    <glyph glyph-name="k" unicode="k" horiz-adv-x="589" 
d="M47 0v750h197v-425l127 198h202l-161 -234l174 -289h-218l-124 218v-218h-197z" />
    <glyph glyph-name="l" unicode="l" horiz-adv-x="300" 
d="M52 0v750h196v-750h-196z" />
    <glyph glyph-name="m" unicode="m" horiz-adv-x="935" 
d="M47 0v523h197v-80q55 94 165 94q103 0 140 -84q65 84 172 84q77 0 123.5 -49.5t46.5 -142.5v-345h-196v309q0 34 -15.5 52t-43.5 18q-33 0 -51 -20.5t-18 -58.5v-300h-195v309q0 34 -16 52t-42 18q-34 0 -52 -20.5t-18 -58.5v-300h-197z" />
    <glyph glyph-name="n" unicode="n" horiz-adv-x="629" 
d="M47 0v523h197v-84q52 98 173 98q77 0 122.5 -49t45.5 -144v-344h-197v300q0 80 -66 80q-78 0 -78 -91v-289h-197z" />
    <glyph glyph-name="o" unicode="o" horiz-adv-x="626" 
d="M314 132q90 0 90 127v7q0 126 -90 126q-93 0 -93 -123v-8q0 -129 93 -129zM313 -13q-127 0 -209 71.5t-82 196.5v8q0 125 82.5 199.5t209.5 74.5q126 0 208 -73t82 -196v-8q0 -126 -82.5 -199.5t-208.5 -73.5z" />
    <glyph glyph-name="p" unicode="p" horiz-adv-x="646" 
d="M47 -174v697h197v-76q53 90 160 90q95 0 157 -70.5t62 -201.5v-8q0 -131 -62.5 -200.5t-157.5 -69.5q-56 0 -97.5 24t-61.5 64v-249h-197zM331 137q92 0 92 122v8q0 124 -93 124q-44 0 -67.5 -32t-23.5 -92v-8q0 -122 92 -122z" />
    <glyph glyph-name="q" unicode="q" horiz-adv-x="645" 
d="M401 -174v253q-21 -40 -62.5 -66t-97.5 -26q-94 0 -156 69t-62 200v8q0 131 62 202t156 71q113 0 160 -86v72h197v-697h-197zM314 137q92 0 92 123v8q0 59 -23.5 91t-67.5 32q-92 0 -92 -124v-8q0 -122 91 -122z" />
    <glyph glyph-name="r" unicode="r" horiz-adv-x="438" 
d="M47 0v523h197v-106q47 115 168 113v-184q-168 9 -168 -105v-241h-197z" />
    <glyph glyph-name="s" unicode="s" horiz-adv-x="523" 
d="M261 -13q-116 0 -180 46.5t-66 134.5h180q5 -28 19 -41t46 -13q55 0 55 37q0 18 -20 27.5t-72 16.5q-109 12 -156 48t-47 118q0 86 65.5 131.5t167.5 45.5q223 0 239 -173h-177q-9 49 -59 49q-52 0 -52 -36q0 -18 19 -26.5t63 -13.5q119 -14 170 -49.5t51 -117.5
q0 -93 -65 -138.5t-181 -45.5z" />
    <glyph glyph-name="t" unicode="t" horiz-adv-x="396" 
d="M265 -12q-193 0 -193 187v216h-61v132h61v107h197v-107h100v-132h-100v-197q0 -51 51 -51q26 0 49 8v-148q-51 -15 -104 -15z" />
    <glyph glyph-name="u" unicode="u" horiz-adv-x="628" 
d="M218 -13q-78 0 -126.5 49.5t-48.5 143.5v343h197v-309q0 -80 66 -80q78 0 78 91v298h197v-523h-197v81q-49 -94 -166 -94z" />
    <glyph glyph-name="v" unicode="v" horiz-adv-x="604" 
d="M197 0l-192 523h210l99 -318l100 318h185l-191 -523h-211z" />
    <glyph glyph-name="w" unicode="w" horiz-adv-x="854" 
d="M162 0l-157 523h205l68 -293l80 293h158l70 -293l79 293h184l-166 -523h-185l-73 273l-72 -273h-191z" />
    <glyph glyph-name="x" unicode="x" horiz-adv-x="613" 
d="M8 0l172 265l-161 258h226l71 -128l71 128h201l-163 -243l180 -280h-226l-84 146l-88 -146h-199z" />
    <glyph glyph-name="y" unicode="y" 
d="M129 -174l85 226l-209 471h213l99 -261l92 261h186l-279 -697h-187z" />
    <glyph glyph-name="z" unicode="z" horiz-adv-x="513" 
d="M8 0v19l214 357h-191v147h471v-20l-224 -357h210v-146h-480z" />
    <glyph glyph-name="braceleft" unicode="{" horiz-adv-x="425" 
d="M388 -148q-160 0 -229.5 57.5t-49.5 178.5l13 81q6 35 -17 56.5t-76 21.5v137q53 0 76 21t17 56l-13 80q-21 125 48 180.5t231 55.5v-143q-55 -3 -73 -21.5t-12 -64.5l12 -99q6 -50 -21.5 -84.5t-82.5 -47.5q56 -12 83 -47t21 -86l-12 -98q-6 -48 12.5 -68t72.5 -23v-143
z" />
    <glyph glyph-name="bar" unicode="|" horiz-adv-x="270" 
d="M67 -148v924h136v-924h-136z" />
    <glyph glyph-name="braceright" unicode="}" horiz-adv-x="425" 
d="M37 -148v143q54 3 72.5 23t12.5 68l-12 98q-6 51 21 86t83 47q-55 13 -82.5 47.5t-21.5 84.5l12 99q6 46 -12 64.5t-73 21.5v143q162 0 231 -55.5t48 -180.5l-13 -80q-6 -35 17 -56t76 -21v-137q-53 0 -76 -21.5t-17 -56.5l13 -81q20 -121 -49.5 -178.5t-229.5 -57.5z
" />
    <glyph glyph-name="asciitilde" unicode="~" horiz-adv-x="532" 
d="M25 213q6 107 49 159t106 52q41 0 92 -22t64 -22q37 0 45 45h125q-3 -100 -47.5 -155.5t-106.5 -55.5q-42 0 -92.5 21.5t-63.5 21.5q-38 0 -45 -44h-126z" />
    <glyph glyph-name="uni00A0" unicode="&#xa0;" horiz-adv-x="253" 
 />
    <glyph glyph-name="exclamdown" unicode="&#xa1;" horiz-adv-x="343" 
d="M60 -117l29 474h164l29 -474h-222zM171 399q-47 0 -80.5 31t-33.5 75t33.5 74.5t80.5 30.5t80.5 -30.5t33.5 -74.5t-33.5 -75t-80.5 -31z" />
    <glyph glyph-name="cent" unicode="&#xa2;" 
d="M279 -135v124q-116 9 -187 77.5t-71 188.5v8q0 117 72 189t186 84v93h75v-93q97 -8 159.5 -63t68.5 -156h-177q-8 58 -51 73v-266q55 16 61 85h170q-3 -95 -63 -153t-168 -67v-124h-75zM215 257q0 -108 64 -131v264q-64 -22 -64 -125v-8z" />
    <glyph glyph-name="sterling" unicode="&#xa3;" horiz-adv-x="668" 
d="M32 285v124h48q-11 39 -11 83q0 110 80 171.5t205 61.5q273 0 285 -250h-206q-5 43 -22 62t-49 19t-50.5 -20.5t-18.5 -56.5q0 -30 5 -70h170v-124h-153q2 -30 2 -46q0 -28 -8 -55q60 -18 79 -18q54 0 58 54h204q-4 -102 -60.5 -165.5t-156.5 -63.5q-59 0 -125 25t-83 25
q-40 0 -45 -41h-166q9 136 103 184q7 26 7 55q0 21 -5 46h-87z" />
    <glyph glyph-name="yen" unicode="&#xa5;" horiz-adv-x="659" 
d="M61 297v73h134l-187 345h245l91 -216l91 216h216l-178 -345h136v-73h-160v-47h160v-74h-160v-176h-228v176h-160v74h160v47h-160z" />
    <glyph glyph-name="brokenbar" unicode="&#xa6;" horiz-adv-x="272" 
d="M67 -148v450h136v-450h-136zM67 373v403h136v-403h-136z" />
    <glyph glyph-name="section" unicode="&#xa7;" horiz-adv-x="618" 
d="M297 -137q-106 0 -165 49.5t-63 137.5h177q3 -57 56 -57q50 0 50 38q0 20 -21 31t-80 24q-118 28 -175.5 71.5t-57.5 128.5q0 96 107 138q-41 44 -41 113q0 87 65.5 137.5t172.5 50.5q106 0 164 -50t62 -138h-176q-6 55 -56 55q-49 0 -49 -37q0 -22 19 -32t80 -25
q58 -13 96 -27t72 -36.5t50.5 -55.5t16.5 -79q0 -94 -107 -139q41 -44 41 -112q0 -84 -65.5 -135t-172.5 -51zM376 231q36 7 36 39q0 23 -33 38q-14 6 -62 21l-73 24q-36 -6 -36 -39q0 -19 19.5 -29.5t75.5 -28.5z" />
    <glyph glyph-name="dieresis" unicode="&#xa8;" horiz-adv-x="400" 
d="M91 570q-38 0 -64.5 26t-26.5 63t26.5 63t64.5 26t65 -26t27 -63t-27 -63t-65 -26zM308 570q-38 0 -64 26t-26 63t26 63t64 26q39 0 65.5 -26t26.5 -63t-26.5 -63t-65.5 -26z" />
    <glyph glyph-name="copyright" unicode="&#xa9;" horiz-adv-x="842" 
d="M429 150q-107 0 -161 54.5t-54 149.5v8q0 92 59.5 147.5t150.5 55.5q85 0 135 -39.5t57 -120.5h-137q-6 54 -55 54q-33 0 -51.5 -24.5t-18.5 -72.5v-7q0 -98 72 -98q57 0 63 56h132q-4 -78 -56.5 -120.5t-135.5 -42.5zM420 31q136 0 229.5 92t93.5 236q0 143 -92 234
t-229 91q-138 0 -230.5 -91.5t-92.5 -235.5t93.5 -235t227.5 -91zM420 -21q-161 0 -273.5 109t-112.5 269q0 159 112.5 269t275.5 110q164 0 275.5 -109t111.5 -268q0 -161 -113 -270.5t-276 -109.5z" />
    <glyph glyph-name="ordfeminine" unicode="&#xaa;" horiz-adv-x="495" 
d="M168 287q-61 0 -101 31t-40 94q0 72 53 102.5t167 30.5h37v13q0 48 -40 48q-36 0 -43 -40h-160q4 75 60 116t152 41q201 0 201 -160v-265h-166v47q-32 -58 -120 -58zM233 401q23 0 37 11.5t14 30.5v18h-31q-57 0 -57 -32q0 -28 37 -28z" />
    <glyph glyph-name="guillemotleft" unicode="&#xab;" horiz-adv-x="477" 
d="M149 67l-124 194l124 194h121l-119 -194l119 -194h-121zM330 67l-124 194l124 194h121l-119 -194l119 -194h-121z" />
    <glyph glyph-name="registered" unicode="&#xae;" horiz-adv-x="517" 
d="M172 396v219h91q93 0 93 -72v-1q0 -40 -35 -58l48 -88h-76l-38 73h-10v-73h-73zM245 516h14q26 0 26 22v1q0 20 -26 20h-14v-43zM259 320q79 0 132 51.5t53 131.5q0 81 -52 132t-133 51q-82 0 -134 -51.5t-52 -132.5t53 -131.5t133 -50.5zM259 280q-97 0 -164 64t-67 158
q0 93 67 158.5t164 65.5t163.5 -65t66.5 -158q0 -94 -67 -158.5t-163 -64.5z" />
    <glyph glyph-name="macron" unicode="&#xaf;" horiz-adv-x="400" 
d="M42 605v107h316v-107h-316z" />
    <glyph glyph-name="degree" unicode="&#xb0;" horiz-adv-x="457" 
d="M230 448q39 0 64.5 29t25.5 72q0 45 -25.5 74t-64.5 29q-41 0 -67 -29t-26 -74q0 -43 26 -72t67 -29zM230 376q-75 0 -127.5 51t-52.5 122q0 72 52.5 123.5t127.5 51.5q73 0 125 -51.5t52 -123.5q0 -71 -52 -122t-125 -51z" />
    <glyph glyph-name="plusminus" unicode="&#xb1;" horiz-adv-x="579" 
d="M211 182v161h-173v142h173v162h157v-162h174v-142h-174v-161h-157zM38 0v126h507v-126h-507z" />
    <glyph glyph-name="twosuperior" unicode="&#xb2;" horiz-adv-x="366" 
d="M4 333v18l129 132q37 38 53.5 60.5t16.5 42.5q0 30 -28 30q-30 0 -36 -51h-131q2 76 48.5 116t126.5 40t120.5 -34.5t40.5 -89.5q0 -37 -19.5 -67.5t-58.5 -67.5l-28 -26h108v-103h-342z" />
    <glyph glyph-name="threesuperior" unicode="&#xb3;" horiz-adv-x="385" 
d="M193 326q-169 0 -176 137h127q4 -38 40 -38q34 0 34 31q0 29 -41 29h-31v79h31q43 0 43 31q0 27 -31 27q-32 0 -38 -35h-126q5 61 47.5 97.5t120.5 36.5q77 0 119.5 -28t42.5 -79q0 -65 -69 -82q34 -5 55.5 -27.5t21.5 -54.5q0 -57 -43 -90.5t-127 -33.5z" />
    <glyph glyph-name="acute" unicode="&#xb4;" horiz-adv-x="400" 
d="M123 578l52 169h193l-104 -169h-141z" />
    <glyph glyph-name="paragraph" unicode="&#xb6;" horiz-adv-x="544" 
d="M253 -100v426h-7q-103 0 -162 48.5t-59 142.5q0 97 60 147.5t161 50.5h232v-815h-76v750h-74v-750h-75z" />
    <glyph glyph-name="periodcentered" unicode="&#xb7;" horiz-adv-x="302" 
d="M150 219q-47 0 -78.5 31t-31.5 76t31.5 76.5t78.5 31.5q48 0 80 -31.5t32 -76.5t-32 -76t-80 -31z" />
    <glyph glyph-name="cedilla" unicode="&#xb8;" horiz-adv-x="400" 
d="M203 -228q-56 0 -90.5 24t-41.5 70h90q6 -26 35 -26q30 0 30 29q0 30 -33 30q-22 0 -32 -12l-40 41l48 72h76l-31 -44q48 5 81 -17.5t33 -69.5q0 -45 -34 -71t-91 -26z" />
    <glyph glyph-name="onesuperior" unicode="&#xb9;" horiz-adv-x="297" 
d="M102 333v243l-83 -45v116l104 68h124v-382h-145z" />
    <glyph glyph-name="ordmasculine" unicode="&#xba;" horiz-adv-x="527" 
d="M264 413q60 0 60 90v6q0 89 -60 89q-61 0 -61 -87v-6q0 -92 61 -92zM263 287q-102 0 -168.5 55.5t-66.5 155.5v6q0 101 67 160t169 59t168.5 -57t66.5 -156v-6q0 -100 -67 -158.5t-169 -58.5z" />
    <glyph glyph-name="guillemotright" unicode="&#xbb;" horiz-adv-x="477" 
d="M26 67l119 194l-119 194h121l124 -194l-124 -194h-121zM206 67l119 194l-119 194h121l124 -194l-124 -194h-121z" />
    <glyph glyph-name="onequarter" unicode="&#xbc;" horiz-adv-x="817" 
d="M105 333v243l-83 -45v116l104 68h124v-382h-145zM68 0l570 715h99l-569 -715h-100zM606 0v70h-190v53l157 259h172v-218h48v-94h-48v-70h-139zM538 164h72v124z" />
    <glyph glyph-name="onehalf" unicode="&#xbd;" horiz-adv-x="831" 
d="M55 0l570 715h99l-569 -715h-100zM105 333v243l-83 -45v116l104 68h124v-382h-145zM465 0v18l129 132q37 38 53.5 60.5t16.5 42.5q0 29 -28 29q-30 0 -36 -50h-131q2 76 48.5 115.5t126.5 39.5t120.5 -34t40.5 -89q0 -37 -20 -68t-58 -67l-28 -27h108v-102h-342z" />
    <glyph glyph-name="threequarters" unicode="&#xbe;" horiz-adv-x="852" 
d="M196 326q-169 0 -176 137h127q4 -38 40 -38q34 0 34 31q0 29 -41 29h-31v79h31q43 0 43 31q0 27 -31 27q-32 0 -38 -35h-126q5 61 47.5 97.5t120.5 36.5q77 0 119.5 -28t42.5 -79q0 -65 -69 -82q34 -5 55.5 -27.5t21.5 -54.5q0 -57 -43 -90.5t-127 -33.5zM118 0l570 715
h99l-569 -715h-100zM640 0v70h-190v53l157 259h172v-218h48v-94h-48v-70h-139zM572 164h72v124z" />
    <glyph glyph-name="questiondown" unicode="&#xbf;" horiz-adv-x="569" 
d="M401 358v-14q0 -35 -17 -68.5t-32.5 -50.5t-46.5 -47q-64 -58 -64 -93q0 -52 52 -52q58 0 69 80h192q-3 -116 -78.5 -178t-198.5 -62q-119 0 -184.5 49.5t-65.5 143.5q0 80 68 146q13 13 37 35t38 35t27.5 31.5t17.5 34.5v10h186zM308 611q48 0 81.5 -31t33.5 -75
t-33.5 -75t-81.5 -31q-47 0 -80.5 31t-33.5 75t33.5 75t80.5 31z" />
    <glyph glyph-name="Agrave" unicode="&#xc0;" horiz-adv-x="760" 
d="M9 0l225 715h293l224 -715h-240l-33 119h-226l-32 -119h-211zM312 757l-100 149h202l47 -149h-149zM366 532l-71 -259h141z" />
    <glyph glyph-name="Aacute" unicode="&#xc1;" horiz-adv-x="760" 
d="M9 0l225 715h293l224 -715h-240l-33 119h-226l-32 -119h-211zM295 757l51 149h201l-103 -149h-149zM366 532l-71 -259h141z" />
    <glyph glyph-name="Acircumflex" unicode="&#xc2;" horiz-adv-x="760" 
d="M9 0l225 715h293l224 -715h-240l-33 119h-226l-32 -119h-211zM183 757l115 149h164l110 -149h-142l-54 47l-54 -47h-139zM366 532l-71 -259h141z" />
    <glyph glyph-name="Atilde" unicode="&#xc3;" horiz-adv-x="760" 
d="M9 0l225 715h293l224 -715h-240l-33 119h-226l-32 -119h-211zM444 755q-32 0 -70.5 16t-50.5 16q-25 0 -30 -30h-109q5 79 40 119.5t86 40.5q30 0 70 -16t54 -16q24 0 29 30h110q-6 -79 -42.5 -119.5t-86.5 -40.5zM366 532l-71 -259h141z" />
    <glyph glyph-name="Adieresis" unicode="&#xc4;" horiz-adv-x="760" 
d="M9 0l225 715h293l224 -715h-240l-33 119h-226l-32 -119h-211zM264 752q-38 0 -64.5 26t-26.5 63t26.5 63t64.5 26t65 -26t27 -63t-27 -63t-65 -26zM491 752q-38 0 -64.5 26t-26.5 63t26.5 63t64.5 26t65 -26t27 -63t-27 -63t-65 -26zM366 532l-71 -259h141z" />
    <glyph glyph-name="Aring" unicode="&#xc5;" horiz-adv-x="760" 
d="M9 0l225 715h293l224 -715h-240l-33 119h-226l-32 -119h-211zM378 742q-50 0 -86 34.5t-36 83.5t36 83.5t86 34.5t86 -34.5t36 -83.5t-36 -83.5t-86 -34.5zM366 532l-71 -259h141zM378 810q20 0 32.5 14t12.5 36t-12.5 35.5t-32.5 13.5t-32.5 -13.5t-12.5 -35.5t12.5 -36
t32.5 -14z" />
    <glyph glyph-name="AE" unicode="&#xc6;" horiz-adv-x="1012" 
d="M7 0l313 715h645v-174h-275v-101h217v-159h-217v-107h291v-174h-516v135h-187l-56 -135h-215zM447 541l-107 -256h125v256h-18z" />
    <glyph glyph-name="Ccedilla" unicode="&#xc7;" horiz-adv-x="764" 
d="M379 -228q-56 0 -90.5 24t-41.5 70h90q6 -26 35 -26q30 0 30 29q0 30 -33 30q-22 0 -32 -12l-40 41l42 63q-154 18 -232.5 113t-78.5 249v8q0 164 104.5 264.5t265.5 100.5q149 0 238.5 -70t101.5 -212h-234q-11 103 -105 103q-62 0 -97 -47.5t-35 -137.5v-8
q0 -89 35 -137t101 -48q106 0 118 105h226q-9 -137 -100 -211t-235 -76l-22 -31q48 5 81 -17.5t33 -69.5q0 -45 -34 -71t-91 -26z" />
    <glyph glyph-name="Egrave" unicode="&#xc8;" horiz-adv-x="620" 
d="M261 757l-100 149h202l47 -149h-149zM65 0v715h508v-174h-282v-101h224v-159h-224v-107h298v-174h-524z" />
    <glyph glyph-name="Eacute" unicode="&#xc9;" horiz-adv-x="620" 
d="M244 757l51 149h201l-103 -149h-149zM65 0v715h508v-174h-282v-101h224v-159h-224v-107h298v-174h-524z" />
    <glyph glyph-name="Ecircumflex" unicode="&#xca;" horiz-adv-x="620" 
d="M132 757l115 149h164l110 -149h-142l-54 47l-54 -47h-139zM65 0v715h508v-174h-282v-101h224v-159h-224v-107h298v-174h-524z" />
    <glyph glyph-name="Edieresis" unicode="&#xcb;" horiz-adv-x="620" 
d="M65 0v715h508v-174h-282v-101h224v-159h-224v-107h298v-174h-524zM213 752q-38 0 -64.5 26t-26.5 63t26.5 63t64.5 26t65 -26t27 -63t-27 -63t-65 -26zM440 752q-38 0 -64.5 26t-26.5 63t26.5 63t64.5 26t65 -26t27 -63t-27 -63t-65 -26z" />
    <glyph glyph-name="Igrave" unicode="&#xcc;" horiz-adv-x="366" 
d="M68 0v715h229v-715h-229zM117 757l-100 149h202l47 -149h-149z" />
    <glyph glyph-name="Iacute" unicode="&#xcd;" horiz-adv-x="366" 
d="M68 0v715h229v-715h-229zM100 757l51 149h201l-103 -149h-149z" />
    <glyph glyph-name="Icircumflex" unicode="&#xce;" horiz-adv-x="366" 
d="M68 0v715h229v-715h-229zM-12 757l115 149h164l110 -149h-142l-54 47l-54 -47h-139z" />
    <glyph glyph-name="Idieresis" unicode="&#xcf;" horiz-adv-x="366" 
d="M68 0v715h229v-715h-229zM69 752q-38 0 -64.5 26t-26.5 63t26.5 63t64.5 26t65 -26t27 -63t-27 -63t-65 -26zM296 752q-38 0 -64.5 26t-26.5 63t26.5 63t64.5 26t65 -26t27 -63t-27 -63t-65 -26z" />
    <glyph glyph-name="Eth" unicode="&#xd0;" horiz-adv-x="785" 
d="M29 284v151h54v280h273q191 0 289 -89t98 -260v-7q0 -172 -99.5 -265.5t-287.5 -93.5h-273v284h-54zM306 174h43q83 0 120 43t37 137v8q0 97 -37.5 138t-121.5 41h-41v-106h104v-151h-104v-110z" />
    <glyph glyph-name="Ntilde" unicode="&#xd1;" horiz-adv-x="787" 
d="M479 755q-32 0 -70.5 16t-50.5 16q-25 0 -30 -30h-109q5 79 40 119.5t86 40.5q30 0 70 -16t54 -16q24 0 29 30h110q-6 -79 -42.5 -119.5t-86.5 -40.5zM65 0v715h254l203 -378v378h199v-715h-217l-239 428v-428h-200z" />
    <glyph glyph-name="Ograve" unicode="&#xd2;" horiz-adv-x="820" 
d="M343 757l-100 149h202l47 -149h-149zM411 165q67 0 106.5 50t39.5 139v8q0 89 -39.5 138t-108.5 49q-67 0 -106 -48.5t-39 -138.5v-8q0 -90 39.5 -139.5t107.5 -49.5zM405 -13q-174 0 -276 101t-102 265v8q0 163 109 264t273 101q169 0 276.5 -96.5t107.5 -262.5v-8
q0 -168 -106 -270t-282 -102z" />
    <glyph glyph-name="Oacute" unicode="&#xd3;" horiz-adv-x="820" 
d="M326 757l51 149h201l-103 -149h-149zM411 165q67 0 106.5 50t39.5 139v8q0 89 -39.5 138t-108.5 49q-67 0 -106 -48.5t-39 -138.5v-8q0 -90 39.5 -139.5t107.5 -49.5zM405 -13q-174 0 -276 101t-102 265v8q0 163 109 264t273 101q169 0 276.5 -96.5t107.5 -262.5v-8
q0 -168 -106 -270t-282 -102z" />
    <glyph glyph-name="Ocircumflex" unicode="&#xd4;" horiz-adv-x="820" 
d="M214 757l115 149h164l110 -149h-142l-54 47l-54 -47h-139zM411 165q67 0 106.5 50t39.5 139v8q0 89 -39.5 138t-108.5 49q-67 0 -106 -48.5t-39 -138.5v-8q0 -90 39.5 -139.5t107.5 -49.5zM405 -13q-174 0 -276 101t-102 265v8q0 163 109 264t273 101q169 0 276.5 -96.5
t107.5 -262.5v-8q0 -168 -106 -270t-282 -102z" />
    <glyph glyph-name="Otilde" unicode="&#xd5;" horiz-adv-x="820" 
d="M475 755q-32 0 -70.5 16t-50.5 16q-25 0 -30 -30h-109q5 79 40 119.5t86 40.5q30 0 70 -16t54 -16q24 0 29 30h110q-6 -79 -42.5 -119.5t-86.5 -40.5zM411 165q67 0 106.5 50t39.5 139v8q0 89 -39.5 138t-108.5 49q-67 0 -106 -48.5t-39 -138.5v-8q0 -90 39.5 -139.5
t107.5 -49.5zM405 -13q-174 0 -276 101t-102 265v8q0 163 109 264t273 101q169 0 276.5 -96.5t107.5 -262.5v-8q0 -168 -106 -270t-282 -102z" />
    <glyph glyph-name="Odieresis" unicode="&#xd6;" horiz-adv-x="820" 
d="M295 752q-38 0 -64.5 26t-26.5 63t26.5 63t64.5 26t65 -26t27 -63t-27 -63t-65 -26zM522 752q-38 0 -64.5 26t-26.5 63t26.5 63t64.5 26t65 -26t27 -63t-27 -63t-65 -26zM411 165q67 0 106.5 50t39.5 139v8q0 89 -39.5 138t-108.5 49q-67 0 -106 -48.5t-39 -138.5v-8
q0 -90 39.5 -139.5t107.5 -49.5zM405 -13q-174 0 -276 101t-102 265v8q0 163 109 264t273 101q169 0 276.5 -96.5t107.5 -262.5v-8q0 -168 -106 -270t-282 -102z" />
    <glyph glyph-name="multiply" unicode="&#xd7;" horiz-adv-x="589" 
d="M142 83l-102 102l152 152l-155 154l103 104l154 -156l153 152l102 -102l-152 -152l155 -154l-104 -104l-154 156z" />
    <glyph glyph-name="Oslash" unicode="&#xd8;" horiz-adv-x="820" 
d="M91 -33l-57 56l78 82q-85 97 -85 248v8q0 163 109 263.5t273 100.5q132 0 231 -62l73 78l57 -56l-68 -72q92 -95 92 -246v-8q0 -168 -106.5 -270t-282.5 -102q-139 0 -233 65zM410 165q69 0 109 50t40 140v8q0 49 -12 86l-235 -248q38 -36 98 -36zM261 354q0 -48 10 -81
l231 245q-39 31 -93 31q-69 0 -108.5 -48t-39.5 -139v-8z" />
    <glyph glyph-name="Ugrave" unicode="&#xd9;" horiz-adv-x="776" 
d="M320 757l-100 149h202l47 -149h-149zM388 -13q-158 0 -242.5 78t-84.5 230v420h226v-411q0 -74 21.5 -106.5t79.5 -32.5t79 33t21 107v410h228v-418q0 -157 -86.5 -233.5t-241.5 -76.5z" />
    <glyph glyph-name="Uacute" unicode="&#xda;" horiz-adv-x="776" 
d="M303 757l51 149h201l-103 -149h-149zM388 -13q-158 0 -242.5 78t-84.5 230v420h226v-411q0 -74 21.5 -106.5t79.5 -32.5t79 33t21 107v410h228v-418q0 -157 -86.5 -233.5t-241.5 -76.5z" />
    <glyph glyph-name="Ucircumflex" unicode="&#xdb;" horiz-adv-x="776" 
d="M191 757l115 149h164l110 -149h-142l-54 47l-54 -47h-139zM388 -13q-158 0 -242.5 78t-84.5 230v420h226v-411q0 -74 21.5 -106.5t79.5 -32.5t79 33t21 107v410h228v-418q0 -157 -86.5 -233.5t-241.5 -76.5z" />
    <glyph glyph-name="Udieresis" unicode="&#xdc;" horiz-adv-x="776" 
d="M388 -13q-158 0 -242.5 78t-84.5 230v420h226v-411q0 -74 21.5 -106.5t79.5 -32.5t79 33t21 107v410h228v-418q0 -157 -86.5 -233.5t-241.5 -76.5zM272 752q-38 0 -64.5 26t-26.5 63t26.5 63t64.5 26t65 -26t27 -63t-27 -63t-65 -26zM499 752q-38 0 -64.5 26t-26.5 63
t26.5 63t64.5 26t65 -26t27 -63t-27 -63t-65 -26z" />
    <glyph glyph-name="Yacute" unicode="&#xdd;" horiz-adv-x="692" 
d="M237 0v305l-232 410h246l109 -224l110 224h217l-222 -409v-306h-228zM270 757l51 149h201l-103 -149h-149z" />
    <glyph glyph-name="Thorn" unicode="&#xde;" horiz-adv-x="664" 
d="M65 0v715h226v-114h59q152 0 223 -58t71 -176v-4q0 -112 -73 -172.5t-211 -60.5h-69v-130h-226zM291 282h47q91 0 91 80v4q0 76 -90 76h-48v-160z" />
    <glyph glyph-name="germandbls" unicode="&#xdf;" horiz-adv-x="644" 
d="M389 -10q-57 0 -97 10v147q22 -8 43 -8q89 0 89 110v6q0 65 -33 89t-95 24v137q41 1 63 21.5t22 49.5v2q0 30 -17 47.5t-49 17.5q-33 0 -52 -22.5t-19 -63.5v-557h-197v540q0 118 78 174t202 56q114 0 177 -46.5t63 -136.5v-2q0 -51 -32.5 -87t-85.5 -52
q76 -16 125.5 -68t49.5 -137v-7q0 -118 -64 -181t-171 -63z" />
    <glyph glyph-name="agrave" unicode="&#xe0;" horiz-adv-x="585" 
d="M198 -13q-77 0 -127.5 39.5t-50.5 118.5q0 90 70.5 130.5t210.5 40.5h45v9q0 38 -12 57t-49 19q-56 0 -62 -56h-184q6 94 74.5 143.5t183.5 49.5q117 0 180.5 -49.5t63.5 -150.5v-338h-190v60q-45 -73 -153 -73zM269 119q34 0 55.5 17.5t21.5 46.5v27h-42q-50 0 -70 -11
t-20 -39q0 -41 55 -41zM229 578l-104 169h193l52 -169h-141z" />
    <glyph glyph-name="aacute" unicode="&#xe1;" horiz-adv-x="585" 
d="M198 -13q-77 0 -127.5 39.5t-50.5 118.5q0 90 70.5 130.5t210.5 40.5h45v9q0 38 -12 57t-49 19q-56 0 -62 -56h-184q6 94 74.5 143.5t183.5 49.5q117 0 180.5 -49.5t63.5 -150.5v-338h-190v60q-45 -73 -153 -73zM269 119q34 0 55.5 17.5t21.5 46.5v27h-42q-50 0 -70 -11
t-20 -39q0 -41 55 -41zM220 578l52 169h193l-104 -169h-141z" />
    <glyph glyph-name="acircumflex" unicode="&#xe2;" horiz-adv-x="585" 
d="M198 -13q-77 0 -127.5 39.5t-50.5 118.5q0 90 70.5 130.5t210.5 40.5h45v9q0 38 -12 57t-49 19q-56 0 -62 -56h-184q6 94 74.5 143.5t183.5 49.5q117 0 180.5 -49.5t63.5 -150.5v-338h-190v60q-45 -73 -153 -73zM269 119q34 0 55.5 17.5t21.5 46.5v27h-42q-50 0 -70 -11
t-20 -39q0 -41 55 -41zM100 580l125 166h138l120 -166h-137l-56 53l-56 -53h-134z" />
    <glyph glyph-name="atilde" unicode="&#xe3;" horiz-adv-x="585" 
d="M198 -13q-77 0 -127.5 39.5t-50.5 118.5q0 90 70.5 130.5t210.5 40.5h45v9q0 38 -12 57t-49 19q-56 0 -62 -56h-184q6 94 74.5 143.5t183.5 49.5q117 0 180.5 -49.5t63.5 -150.5v-338h-190v60q-45 -73 -153 -73zM269 119q34 0 55.5 17.5t21.5 46.5v27h-42q-50 0 -70 -11
t-20 -39q0 -41 55 -41zM361 581q-33 0 -70 16t-48 16q-12 0 -20 -8.5t-10 -21.5h-104q4 80 36 121t82 41q30 0 68.5 -16t52.5 -16q25 0 30 31h104q-5 -80 -38.5 -121.5t-82.5 -41.5z" />
    <glyph glyph-name="adieresis" unicode="&#xe4;" horiz-adv-x="585" 
d="M198 -13q-77 0 -127.5 39.5t-50.5 118.5q0 90 70.5 130.5t210.5 40.5h45v9q0 38 -12 57t-49 19q-56 0 -62 -56h-184q6 94 74.5 143.5t183.5 49.5q117 0 180.5 -49.5t63.5 -150.5v-338h-190v60q-45 -73 -153 -73zM269 119q34 0 55.5 17.5t21.5 46.5v27h-42q-50 0 -70 -11
t-20 -39q0 -41 55 -41zM186 570q-38 0 -64.5 26t-26.5 63t26.5 63t64.5 26t65 -26t27 -63t-27 -63t-65 -26zM403 570q-38 0 -64 26t-26 63t26 63t64 26q39 0 65.5 -26t26.5 -63t-26.5 -63t-65.5 -26z" />
    <glyph glyph-name="aring" unicode="&#xe5;" horiz-adv-x="585" 
d="M198 -13q-77 0 -127.5 39.5t-50.5 118.5q0 90 70.5 130.5t210.5 40.5h45v9q0 38 -12 57t-49 19q-56 0 -62 -56h-184q6 94 74.5 143.5t183.5 49.5q117 0 180.5 -49.5t63.5 -150.5v-338h-190v60q-45 -73 -153 -73zM269 119q34 0 55.5 17.5t21.5 46.5v27h-42q-50 0 -70 -11
t-20 -39q0 -41 55 -41zM295 642q19 0 31.5 13.5t12.5 34.5q0 22 -12 35.5t-32 13.5t-32 -13.5t-12 -35.5q0 -21 12.5 -34.5t31.5 -13.5zM295 574q-50 0 -85 34t-35 82t35.5 82.5t84.5 34.5t84.5 -34.5t35.5 -82.5t-35 -82t-85 -34z" />
    <glyph glyph-name="ae" unicode="&#xe6;" horiz-adv-x="913" 
d="M626 -13q-141 0 -206 88q-67 -88 -203 -88q-87 0 -142.5 39t-55.5 119q0 90 70.5 132t209.5 42h49v6q0 38 -13.5 57t-49.5 19q-56 0 -63 -56h-184q6 94 74 143.5t180 49.5q118 0 166 -57q65 57 165 57q117 0 193 -68.5t76 -203.5v-47h-357q8 -98 94 -98q70 0 81 56h182
q-11 -91 -79 -140.5t-187 -49.5zM536 319h167q-5 92 -80 92q-37 0 -60 -24t-27 -68zM269 119q37 0 58 17.5t21 46.5v33h-46q-47 0 -68 -11.5t-21 -39.5q0 -46 56 -46z" />
    <glyph glyph-name="ccedilla" unicode="&#xe7;" horiz-adv-x="586" 
d="M280 -228q-56 0 -90.5 24t-41.5 70h90q6 -26 35 -26q30 0 30 29q0 30 -33 30q-22 0 -32 -12l-40 41l42 64q-99 15 -158.5 82.5t-59.5 179.5v8q0 129 80 202t203 73q109 0 182 -52.5t80 -167.5h-185q-10 69 -72 69q-88 0 -88 -120v-8q0 -128 91 -128q34 0 55 20.5t25 58.5
h177q-4 -101 -69 -160t-188 -62l-22 -31q48 5 81 -17.5t33 -69.5q0 -45 -34 -71t-91 -26z" />
    <glyph glyph-name="egrave" unicode="&#xe8;" horiz-adv-x="604" 
d="M311 -13q-129 0 -209.5 71t-80.5 197v8q0 124 83.5 199.5t206.5 75.5q118 0 195 -69t77 -203v-48h-363q4 -47 30 -72t68 -25q71 0 82 56h184q-12 -91 -81 -140.5t-192 -49.5zM221 321h172q-3 90 -82 90q-37 0 -60.5 -23t-29.5 -67zM240 578l-104 169h193l52 -169h-141z
" />
    <glyph glyph-name="eacute" unicode="&#xe9;" horiz-adv-x="604" 
d="M231 578l52 169h193l-104 -169h-141zM311 -13q-129 0 -209.5 71t-80.5 197v8q0 124 83.5 199.5t206.5 75.5q118 0 195 -69t77 -203v-48h-363q4 -47 30 -72t68 -25q71 0 82 56h184q-12 -91 -81 -140.5t-192 -49.5zM221 321h172q-3 90 -82 90q-37 0 -60.5 -23t-29.5 -67z
" />
    <glyph glyph-name="ecircumflex" unicode="&#xea;" horiz-adv-x="604" 
d="M114 580l125 166h138l120 -166h-137l-56 53l-56 -53h-134zM311 -13q-129 0 -209.5 71t-80.5 197v8q0 124 83.5 199.5t206.5 75.5q118 0 195 -69t77 -203v-48h-363q4 -47 30 -72t68 -25q71 0 82 56h184q-12 -91 -81 -140.5t-192 -49.5zM221 321h172q-3 90 -82 90
q-37 0 -60.5 -23t-29.5 -67z" />
    <glyph glyph-name="edieresis" unicode="&#xeb;" horiz-adv-x="604" 
d="M197 570q-38 0 -64.5 26t-26.5 63t26.5 63t64.5 26t65 -26t27 -63t-27 -63t-65 -26zM414 570q-38 0 -64 26t-26 63t26 63t64 26q39 0 65.5 -26t26.5 -63t-26.5 -63t-65.5 -26zM311 -13q-129 0 -209.5 71t-80.5 197v8q0 124 83.5 199.5t206.5 75.5q118 0 195 -69t77 -203
v-48h-363q4 -47 30 -72t68 -25q71 0 82 56h184q-12 -91 -81 -140.5t-192 -49.5zM221 321h172q-3 90 -82 90q-37 0 -60.5 -23t-29.5 -67z" />
    <glyph glyph-name="igrave" unicode="&#xec;" horiz-adv-x="303" 
d="M53 0v523h196v-523h-196zM86 578l-104 169h193l52 -169h-141z" />
    <glyph glyph-name="iacute" unicode="&#xed;" horiz-adv-x="303" 
d="M77 578l52 169h193l-104 -169h-141zM53 0v523h196v-523h-196z" />
    <glyph glyph-name="icircumflex" unicode="&#xee;" horiz-adv-x="303" 
d="M-40 580l125 166h138l120 -166h-137l-56 53l-56 -53h-134zM53 0v523h196v-523h-196z" />
    <glyph glyph-name="idieresis" unicode="&#xef;" horiz-adv-x="303" 
d="M43 570q-38 0 -64.5 26t-26.5 63t26.5 63t64.5 26t65 -26t27 -63t-27 -63t-65 -26zM258 570q-37 0 -63.5 26t-26.5 63t26.5 63t63.5 26q39 0 65.5 -26t26.5 -63t-26.5 -63t-65.5 -26zM53 0v523h196v-523h-196z" />
    <glyph glyph-name="eth" unicode="&#xf0;" horiz-adv-x="627" 
d="M124 556l-23 62l111 37q-54 46 -122 94h222q21 -12 60 -40l111 38l23 -62l-73 -25q171 -154 171 -355v-22q0 -137 -80.5 -216.5t-214.5 -79.5q-126 0 -207 73.5t-81 203.5v12q0 116 70.5 184.5t160.5 68.5q37 0 59.5 -10t45.5 -33q-29 57 -90 118zM314 132q90 0 90 126v8
q0 126 -90 126q-92 0 -92 -123v-8q0 -129 92 -129z" />
    <glyph glyph-name="ntilde" unicode="&#xf1;" horiz-adv-x="629" 
d="M47 0v523h197v-84q52 98 173 98q77 0 122.5 -49t45.5 -144v-344h-197v300q0 80 -66 80q-78 0 -78 -91v-289h-197zM381 581q-33 0 -70 16t-48 16q-12 0 -20 -8.5t-10 -21.5h-104q4 80 36 121t82 41q30 0 68.5 -16t52.5 -16q25 0 30 31h104q-5 -80 -38.5 -121.5
t-82.5 -41.5z" />
    <glyph glyph-name="ograve" unicode="&#xf2;" horiz-adv-x="626" 
d="M314 132q90 0 90 127v7q0 126 -90 126q-93 0 -93 -123v-8q0 -129 93 -129zM313 -13q-127 0 -209 71.5t-82 196.5v8q0 125 82.5 199.5t209.5 74.5q126 0 208 -73t82 -196v-8q0 -126 -82.5 -199.5t-208.5 -73.5zM246 578l-104 169h193l52 -169h-141z" />
    <glyph glyph-name="oacute" unicode="&#xf3;" horiz-adv-x="626" 
d="M237 578l52 169h193l-104 -169h-141zM314 132q90 0 90 127v7q0 126 -90 126q-93 0 -93 -123v-8q0 -129 93 -129zM313 -13q-127 0 -209 71.5t-82 196.5v8q0 125 82.5 199.5t209.5 74.5q126 0 208 -73t82 -196v-8q0 -126 -82.5 -199.5t-208.5 -73.5z" />
    <glyph glyph-name="ocircumflex" unicode="&#xf4;" horiz-adv-x="626" 
d="M120 580l125 166h138l120 -166h-137l-56 53l-56 -53h-134zM314 132q90 0 90 127v7q0 126 -90 126q-93 0 -93 -123v-8q0 -129 93 -129zM313 -13q-127 0 -209 71.5t-82 196.5v8q0 125 82.5 199.5t209.5 74.5q126 0 208 -73t82 -196v-8q0 -126 -82.5 -199.5t-208.5 -73.5z
" />
    <glyph glyph-name="otilde" unicode="&#xf5;" horiz-adv-x="626" 
d="M314 132q90 0 90 127v7q0 126 -90 126q-93 0 -93 -123v-8q0 -129 93 -129zM313 -13q-127 0 -209 71.5t-82 196.5v8q0 125 82.5 199.5t209.5 74.5q126 0 208 -73t82 -196v-8q0 -126 -82.5 -199.5t-208.5 -73.5zM378 581q-33 0 -70 16t-48 16q-12 0 -20 -8.5t-10 -21.5
h-104q4 80 36 121t82 41q30 0 68.5 -16t52.5 -16q25 0 30 31h104q-5 -80 -38.5 -121.5t-82.5 -41.5z" />
    <glyph glyph-name="odieresis" unicode="&#xf6;" horiz-adv-x="626" 
d="M203 570q-38 0 -64.5 26t-26.5 63t26.5 63t64.5 26t65 -26t27 -63t-27 -63t-65 -26zM420 570q-38 0 -64 26t-26 63t26 63t64 26q39 0 65.5 -26t26.5 -63t-26.5 -63t-65.5 -26zM314 132q90 0 90 127v7q0 126 -90 126q-93 0 -93 -123v-8q0 -129 93 -129zM313 -13
q-127 0 -209 71.5t-82 196.5v8q0 125 82.5 199.5t209.5 74.5q126 0 208 -73t82 -196v-8q0 -126 -82.5 -199.5t-208.5 -73.5z" />
    <glyph glyph-name="divide" unicode="&#xf7;" horiz-adv-x="582" 
d="M291 34q-41 0 -70.5 28.5t-29.5 69.5q0 40 29.5 68.5t70.5 28.5t70.5 -28.5t29.5 -68.5q0 -41 -29.5 -69.5t-70.5 -28.5zM38 273v134h507v-134h-507zM291 450q-41 0 -70.5 28.5t-29.5 68.5q0 41 29.5 69.5t70.5 28.5t70.5 -28.5t29.5 -69.5q0 -40 -29.5 -68.5
t-70.5 -28.5z" />
    <glyph glyph-name="oslash" unicode="&#xf8;" horiz-adv-x="626" 
d="M73 -39l-51 46l64 68q-65 71 -65 180v8q0 125 83 200t210 75q95 0 167 -43l65 69l50 -46l-62 -66q70 -72 70 -184v-8q0 -126 -82.5 -199.5t-208.5 -73.5q-101 0 -173 45zM314 131q93 0 93 127v8q0 18 -4 46l-150 -160q23 -21 61 -21zM219 261q0 -23 3 -42l147 157
q-23 17 -55 17q-95 0 -95 -124v-8z" />
    <glyph glyph-name="ugrave" unicode="&#xf9;" horiz-adv-x="628" 
d="M218 -13q-78 0 -126.5 49.5t-48.5 143.5v343h197v-309q0 -80 66 -80q78 0 78 91v298h197v-523h-197v81q-49 -94 -166 -94zM246 578l-104 169h193l52 -169h-141z" />
    <glyph glyph-name="uacute" unicode="&#xfa;" horiz-adv-x="628" 
d="M237 578l52 169h193l-104 -169h-141zM218 -13q-78 0 -126.5 49.5t-48.5 143.5v343h197v-309q0 -80 66 -80q78 0 78 91v298h197v-523h-197v81q-49 -94 -166 -94z" />
    <glyph glyph-name="ucircumflex" unicode="&#xfb;" horiz-adv-x="628" 
d="M120 580l125 166h138l120 -166h-137l-56 53l-56 -53h-134zM218 -13q-78 0 -126.5 49.5t-48.5 143.5v343h197v-309q0 -80 66 -80q78 0 78 91v298h197v-523h-197v81q-49 -94 -166 -94z" />
    <glyph glyph-name="udieresis" unicode="&#xfc;" horiz-adv-x="628" 
d="M203 570q-38 0 -64.5 26t-26.5 63t26.5 63t64.5 26t65 -26t27 -63t-27 -63t-65 -26zM420 570q-38 0 -64 26t-26 63t26 63t64 26q39 0 65.5 -26t26.5 -63t-26.5 -63t-65.5 -26zM218 -13q-78 0 -126.5 49.5t-48.5 143.5v343h197v-309q0 -80 66 -80q78 0 78 91v298h197v-523
h-197v81q-49 -94 -166 -94z" />
    <glyph glyph-name="yacute" unicode="&#xfd;" 
d="M129 -174l85 226l-209 471h213l99 -261l92 261h186l-279 -697h-187zM236 578l52 169h193l-104 -169h-141z" />
    <glyph glyph-name="thorn" unicode="&#xfe;" horiz-adv-x="646" 
d="M47 -174v924h197v-303q53 90 160 90q95 0 157 -70.5t62 -201.5v-8q0 -131 -62.5 -200.5t-157.5 -69.5q-56 0 -97.5 24t-61.5 64v-249h-197zM331 137q92 0 92 122v8q0 124 -93 124q-44 0 -67.5 -32t-23.5 -92v-8q0 -122 92 -122z" />
    <glyph glyph-name="ydieresis" unicode="&#xff;" 
d="M129 -174l85 226l-209 471h213l99 -261l92 261h186l-279 -697h-187zM202 570q-38 0 -64.5 26t-26.5 63t26.5 63t64.5 26t65 -26t27 -63t-27 -63t-65 -26zM419 570q-38 0 -64 26t-26 63t26 63t64 26q39 0 65.5 -26t26.5 -63t-26.5 -63t-65.5 -26z" />
    <glyph glyph-name="Amacron" unicode="&#x100;" horiz-adv-x="760" 
d="M9 0l225 715h293l224 -715h-240l-33 119h-226l-32 -119h-211zM211 769v115h333v-115h-333zM366 532l-71 -259h141z" />
    <glyph glyph-name="amacron" unicode="&#x101;" horiz-adv-x="585" 
d="M198 -13q-77 0 -127.5 39.5t-50.5 118.5q0 90 70.5 130.5t210.5 40.5h45v9q0 38 -12 57t-49 19q-56 0 -62 -56h-184q6 94 74.5 143.5t183.5 49.5q117 0 180.5 -49.5t63.5 -150.5v-338h-190v60q-45 -73 -153 -73zM269 119q34 0 55.5 17.5t21.5 46.5v27h-42q-50 0 -70 -11
t-20 -39q0 -41 55 -41zM137 605v107h316v-107h-316z" />
    <glyph glyph-name="Abreve" unicode="&#x102;" horiz-adv-x="760" 
d="M9 0l225 715h293l224 -715h-240l-33 119h-226l-32 -119h-211zM378 749q-78 0 -122 41t-49 116h124q3 -42 47 -42q19 0 32 11.5t15 30.5h124q-5 -74 -50.5 -115.5t-120.5 -41.5zM366 532l-71 -259h141z" />
    <glyph glyph-name="abreve" unicode="&#x103;" horiz-adv-x="585" 
d="M198 -13q-77 0 -127.5 39.5t-50.5 118.5q0 90 70.5 130.5t210.5 40.5h45v9q0 38 -12 57t-49 19q-56 0 -62 -56h-184q6 94 74.5 143.5t183.5 49.5q117 0 180.5 -49.5t63.5 -150.5v-338h-190v60q-45 -73 -153 -73zM269 119q34 0 55.5 17.5t21.5 46.5v27h-42q-50 0 -70 -11
t-20 -39q0 -41 55 -41zM295 581q-76 0 -120.5 42t-48.5 121h119q3 -45 50 -45q46 0 51 45h118q-4 -78 -50 -120.5t-119 -42.5z" />
    <glyph glyph-name="Aogonek" unicode="&#x104;" horiz-adv-x="760" 
d="M646 -182q-60 0 -94 22t-34 60q0 55 87 100h-94l-33 119h-226l-32 -119h-211l225 715h293l219 -700q-27 -15 -43 -35t-16 -35q0 -24 28 -24q16 0 25 4v-90q-32 -17 -94 -17zM366 532l-71 -259h141z" />
    <glyph glyph-name="aogonek" unicode="&#x105;" horiz-adv-x="585" 
d="M450 -182q-55 0 -87 21.5t-32 59.5q0 60 88 101h-68v60q-45 -73 -153 -73q-77 0 -127.5 39.5t-50.5 118.5q0 90 70.5 130.5t210.5 40.5h45v9q0 38 -12 57t-49 19q-56 0 -62 -56h-184q6 94 74.5 143.5t183.5 49.5q117 0 180.5 -49.5t63.5 -150.5v-326q-52 -40 -52 -71
q0 -26 29 -26q15 0 26 4v-84q-34 -17 -94 -17zM269 119q34 0 55.5 17.5t21.5 46.5v27h-42q-50 0 -70 -11t-20 -39q0 -41 55 -41z" />
    <glyph glyph-name="Cacute" unicode="&#x106;" horiz-adv-x="764" 
d="M408 -13q-188 0 -284 98t-96 268v8q0 164 104.5 264.5t265.5 100.5q149 0 238.5 -70t101.5 -212h-234q-11 103 -105 103q-62 0 -97 -47.5t-35 -137.5v-8q0 -89 35 -137t101 -48q106 0 118 105h226q-9 -138 -101 -212.5t-238 -74.5zM313 757l51 149h201l-103 -149h-149z
" />
    <glyph glyph-name="cacute" unicode="&#x107;" horiz-adv-x="586" 
d="M224 578l52 169h193l-104 -169h-141zM300 -13q-123 0 -200.5 69t-77.5 198v8q0 129 80 202t203 73q109 0 182 -52.5t80 -167.5h-185q-10 69 -72 69q-88 0 -88 -120v-8q0 -128 91 -128q34 0 55 20.5t25 58.5h177q-4 -104 -72.5 -163t-197.5 -59z" />
    <glyph glyph-name="Ccircumflex" unicode="&#x108;" horiz-adv-x="764" 
d="M201 757l115 149h164l110 -149h-142l-54 47l-54 -47h-139zM408 -13q-188 0 -284 98t-96 268v8q0 164 104.5 264.5t265.5 100.5q149 0 238.5 -70t101.5 -212h-234q-11 103 -105 103q-62 0 -97 -47.5t-35 -137.5v-8q0 -89 35 -137t101 -48q106 0 118 105h226
q-9 -138 -101 -212.5t-238 -74.5z" />
    <glyph glyph-name="ccircumflex" unicode="&#x109;" horiz-adv-x="586" 
d="M108 580l125 166h138l120 -166h-137l-56 53l-56 -53h-134zM300 -13q-123 0 -200.5 69t-77.5 198v8q0 129 80 202t203 73q109 0 182 -52.5t80 -167.5h-185q-10 69 -72 69q-88 0 -88 -120v-8q0 -128 91 -128q34 0 55 20.5t25 58.5h177q-4 -104 -72.5 -163t-197.5 -59z" />
    <glyph glyph-name="Cdotaccent" unicode="&#x10a;" horiz-adv-x="764" 
d="M408 -13q-188 0 -284 98t-96 268v8q0 164 104.5 264.5t265.5 100.5q149 0 238.5 -70t101.5 -212h-234q-11 103 -105 103q-62 0 -97 -47.5t-35 -137.5v-8q0 -89 35 -137t101 -48q106 0 118 105h226q-9 -138 -101 -212.5t-238 -74.5zM396 752q-44 0 -73.5 27t-29.5 68
t29.5 68.5t73.5 27.5t73 -27.5t29 -68.5t-29.5 -68t-72.5 -27z" />
    <glyph glyph-name="cdotaccent" unicode="&#x10b;" horiz-adv-x="586" 
d="M300 -13q-123 0 -200.5 69t-77.5 198v8q0 129 80 202t203 73q109 0 182 -52.5t80 -167.5h-185q-10 69 -72 69q-88 0 -88 -120v-8q0 -128 91 -128q34 0 55 20.5t25 58.5h177q-4 -104 -72.5 -163t-197.5 -59zM303 570q-45 0 -74 27t-29 68t29 68.5t74 27.5q44 0 73.5 -27.5
t29.5 -68.5t-29.5 -68t-73.5 -27z" />
    <glyph glyph-name="Ccaron" unicode="&#x10c;" horiz-adv-x="764" 
d="M310 757l-110 149h142l54 -47l54 47h139l-115 -149h-164zM408 -13q-188 0 -284 98t-96 268v8q0 164 104.5 264.5t265.5 100.5q149 0 238.5 -70t101.5 -212h-234q-11 103 -105 103q-62 0 -97 -47.5t-35 -137.5v-8q0 -89 35 -137t101 -48q106 0 118 105h226
q-9 -138 -101 -212.5t-238 -74.5z" />
    <glyph glyph-name="ccaron" unicode="&#x10d;" horiz-adv-x="586" 
d="M228 580l-120 166h137l56 -52l56 52h134l-125 -166h-138zM300 -13q-123 0 -200.5 69t-77.5 198v8q0 129 80 202t203 73q109 0 182 -52.5t80 -167.5h-185q-10 69 -72 69q-88 0 -88 -120v-8q0 -128 91 -128q34 0 55 20.5t25 58.5h177q-4 -104 -72.5 -163t-197.5 -59z" />
    <glyph glyph-name="Dcaron" unicode="&#x10e;" horiz-adv-x="751" 
d="M254 757l-110 149h142l54 -47l54 47h139l-115 -149h-164zM292 174h38q83 0 120.5 43t37.5 137v8q0 97 -37.5 138t-121.5 41h-37v-367zM65 0v715h273q191 0 288.5 -89t97.5 -260v-7q0 -172 -99 -265.5t-287 -93.5h-273z" />
    <glyph glyph-name="dcaron" unicode="&#x10f;" horiz-adv-x="645" 
d="M632 575l8 175h140l-50 -175h-98zM241 -13q-94 0 -156 69t-62 200v8q0 131 62 202t156 71q113 0 160 -86v299h197v-750h-197v84q-21 -43 -62.5 -70t-97.5 -27zM314 137q92 0 92 123v8q0 59 -23.5 91t-67.5 32q-92 0 -92 -124v-8q0 -122 91 -122z" />
    <glyph glyph-name="Dcroat" unicode="&#x110;" horiz-adv-x="785" 
d="M29 284v151h54v280h273q191 0 289 -89t98 -260v-7q0 -172 -99.5 -265.5t-287.5 -93.5h-273v284h-54zM306 174h43q83 0 120 43t37 137v8q0 97 -37.5 138t-121.5 41h-41v-106h104v-151h-104v-110z" />
    <glyph glyph-name="dcroat" unicode="&#x111;" horiz-adv-x="645" 
d="M250 581v103h151v66h197v-66h53v-103h-53v-581h-197v84q-21 -43 -62.5 -70t-97.5 -27q-94 0 -156 69t-62 200v8q0 131 62 202t156 71q113 0 160 -86v130h-151zM314 137q92 0 92 123v8q0 59 -23.5 91t-67.5 32q-92 0 -92 -124v-8q0 -122 91 -122z" />
    <glyph glyph-name="Emacron" unicode="&#x112;" horiz-adv-x="620" 
d="M65 0v715h508v-174h-282v-101h224v-159h-224v-107h298v-174h-524zM160 769v115h333v-115h-333z" />
    <glyph glyph-name="emacron" unicode="&#x113;" horiz-adv-x="604" 
d="M311 -13q-129 0 -209.5 71t-80.5 197v8q0 124 83.5 199.5t206.5 75.5q118 0 195 -69t77 -203v-48h-363q4 -47 30 -72t68 -25q71 0 82 56h184q-12 -91 -81 -140.5t-192 -49.5zM221 321h172q-3 90 -82 90q-37 0 -60.5 -23t-29.5 -67zM148 605v107h316v-107h-316z" />
    <glyph glyph-name="Ebreve" unicode="&#x114;" horiz-adv-x="620" 
d="M65 0v715h508v-174h-282v-101h224v-159h-224v-107h298v-174h-524zM325 749q-78 0 -122 41t-49 116h124q3 -42 47 -42q19 0 32 11.5t15 30.5h124q-5 -74 -50.5 -115.5t-120.5 -41.5z" />
    <glyph glyph-name="ebreve" unicode="&#x115;" horiz-adv-x="604" 
d="M311 -13q-129 0 -209.5 71t-80.5 197v8q0 124 83.5 199.5t206.5 75.5q118 0 195 -69t77 -203v-48h-363q4 -47 30 -72t68 -25q71 0 82 56h184q-12 -91 -81 -140.5t-192 -49.5zM221 321h172q-3 90 -82 90q-37 0 -60.5 -23t-29.5 -67zM301 581q-76 0 -120.5 42t-48.5 121
h119q3 -45 50 -45q46 0 51 45h118q-4 -78 -50 -120.5t-119 -42.5z" />
    <glyph glyph-name="Edotaccent" unicode="&#x116;" horiz-adv-x="620" 
d="M327 752q-44 0 -73.5 27t-29.5 68t29.5 68.5t73.5 27.5t73 -27.5t29 -68.5t-29.5 -68t-72.5 -27zM65 0v715h508v-174h-282v-101h224v-159h-224v-107h298v-174h-524z" />
    <glyph glyph-name="edotaccent" unicode="&#x117;" horiz-adv-x="604" 
d="M311 -13q-129 0 -209.5 71t-80.5 197v8q0 124 83.5 199.5t206.5 75.5q118 0 195 -69t77 -203v-48h-363q4 -47 30 -72t68 -25q71 0 82 56h184q-12 -91 -81 -140.5t-192 -49.5zM221 321h172q-3 90 -82 90q-37 0 -60.5 -23t-29.5 -67zM307 570q-45 0 -74 27t-29 68t29 68.5
t74 27.5q44 0 73.5 -27.5t29.5 -68.5t-29.5 -68t-73.5 -27z" />
    <glyph glyph-name="Eogonek" unicode="&#x118;" horiz-adv-x="620" 
d="M470 -182q-58 0 -91.5 22t-33.5 60q0 56 86 100h-366v715h508v-174h-282v-101h224v-159h-224v-107h298v-174h-40q-36 -32 -36 -55q0 -24 28 -24q15 0 26 4v-90q-34 -17 -97 -17z" />
    <glyph glyph-name="eogonek" unicode="&#x119;" horiz-adv-x="604" 
d="M408 -182q-55 0 -88 21t-33 58q0 28 22.5 50t62.5 45q-28 -5 -61 -5q-129 0 -209.5 71t-80.5 197v8q0 124 83.5 199.5t206.5 75.5q118 0 195 -69t77 -203v-48h-363q4 -47 30 -72t68 -25q71 0 82 56h184q-9 -73 -68 -134q-28 -28 -39 -40.5t-21.5 -30t-10.5 -31.5
q0 -26 29 -26q15 0 26 4v-84q-34 -17 -92 -17zM221 321h172q-3 90 -82 90q-37 0 -60.5 -23t-29.5 -67z" />
    <glyph glyph-name="Ecaron" unicode="&#x11a;" horiz-adv-x="620" 
d="M241 757l-110 149h142l54 -47l54 47h139l-115 -149h-164zM65 0v715h508v-174h-282v-101h224v-159h-224v-107h298v-174h-524z" />
    <glyph glyph-name="ecaron" unicode="&#x11b;" horiz-adv-x="604" 
d="M234 580l-120 166h137l56 -52l56 52h134l-125 -166h-138zM311 -13q-129 0 -209.5 71t-80.5 197v8q0 124 83.5 199.5t206.5 75.5q118 0 195 -69t77 -203v-48h-363q4 -47 30 -72t68 -25q71 0 82 56h184q-12 -91 -81 -140.5t-192 -49.5zM221 321h172q-3 90 -82 90
q-37 0 -60.5 -23t-29.5 -67z" />
    <glyph glyph-name="Gcircumflex" unicode="&#x11c;" horiz-adv-x="791" 
d="M407 -13q-181 0 -280.5 100.5t-99.5 265.5v8q0 162 107.5 263.5t272.5 101.5q141 0 236 -67.5t104 -202.5h-224q-12 92 -115 92q-68 0 -106.5 -50.5t-38.5 -140.5v-8q0 -190 151 -190q63 0 94 25.5t35 65.5h-122v149h343v-92q0 -140 -92 -230t-265 -90zM210 757l115 149
h164l110 -149h-142l-54 47l-54 -47h-139z" />
    <glyph glyph-name="gcircumflex" unicode="&#x11d;" horiz-adv-x="644" 
d="M115 580l125 166h138l120 -166h-137l-56 53l-56 -53h-134zM299 -194q-258 0 -280 198h195q14 -62 86 -62q100 0 100 100v81q-21 -40 -62.5 -66t-96.5 -26q-94 0 -156.5 65.5t-62.5 182.5v8q0 114 63 182.5t155 68.5q112 0 160 -87v72h197v-478q0 -117 -76 -178t-222 -61z
M314 171q43 0 67.5 29t24.5 79v7q0 49 -24 77.5t-68 28.5t-68 -28.5t-24 -78.5v-8q0 -49 24 -77.5t68 -28.5z" />
    <glyph glyph-name="Gbreve" unicode="&#x11e;" horiz-adv-x="791" 
d="M407 -13q-181 0 -280.5 100.5t-99.5 265.5v8q0 162 107.5 263.5t272.5 101.5q141 0 236 -67.5t104 -202.5h-224q-12 92 -115 92q-68 0 -106.5 -50.5t-38.5 -140.5v-8q0 -190 151 -190q63 0 94 25.5t35 65.5h-122v149h343v-92q0 -140 -92 -230t-265 -90zM405 749
q-78 0 -122 41t-49 116h124q3 -42 47 -42q19 0 32 11.5t15 30.5h124q-5 -74 -50.5 -115.5t-120.5 -41.5z" />
    <glyph glyph-name="gbreve" unicode="&#x11f;" horiz-adv-x="644" 
d="M299 -194q-258 0 -280 198h195q14 -62 86 -62q100 0 100 100v81q-21 -40 -62.5 -66t-96.5 -26q-94 0 -156.5 65.5t-62.5 182.5v8q0 114 63 182.5t155 68.5q112 0 160 -87v72h197v-478q0 -117 -76 -178t-222 -61zM314 171q43 0 67.5 29t24.5 79v7q0 49 -24 77.5t-68 28.5
t-68 -28.5t-24 -78.5v-8q0 -49 24 -77.5t68 -28.5zM307 581q-76 0 -120.5 42t-48.5 121h119q3 -45 50 -45q46 0 51 45h118q-4 -78 -50 -120.5t-119 -42.5z" />
    <glyph glyph-name="Gdotaccent" unicode="&#x120;" horiz-adv-x="791" 
d="M407 -13q-181 0 -280.5 100.5t-99.5 265.5v8q0 162 107.5 263.5t272.5 101.5q141 0 236 -67.5t104 -202.5h-224q-12 92 -115 92q-68 0 -106.5 -50.5t-38.5 -140.5v-8q0 -190 151 -190q63 0 94 25.5t35 65.5h-122v149h343v-92q0 -140 -92 -230t-265 -90zM405 752
q-44 0 -73.5 27t-29.5 68t29.5 68.5t73.5 27.5t73 -27.5t29 -68.5t-29.5 -68t-72.5 -27z" />
    <glyph glyph-name="gdotaccent" unicode="&#x121;" horiz-adv-x="644" 
d="M299 -194q-258 0 -280 198h195q14 -62 86 -62q100 0 100 100v81q-21 -40 -62.5 -66t-96.5 -26q-94 0 -156.5 65.5t-62.5 182.5v8q0 114 63 182.5t155 68.5q112 0 160 -87v72h197v-478q0 -117 -76 -178t-222 -61zM314 171q43 0 67.5 29t24.5 79v7q0 49 -24 77.5t-68 28.5
t-68 -28.5t-24 -78.5v-8q0 -49 24 -77.5t68 -28.5zM308 570q-45 0 -74 27t-29 68t29 68.5t74 27.5q44 0 73.5 -27.5t29.5 -68.5t-29.5 -68t-73.5 -27z" />
    <glyph glyph-name="Gcommaaccent" unicode="&#x122;" horiz-adv-x="790" 
d="M407 -13q-181 0 -280.5 100.5t-99.5 265.5v8q0 162 107.5 263.5t272.5 101.5q141 0 236 -67.5t104 -202.5h-224q-12 92 -115 92q-68 0 -106.5 -50.5t-38.5 -140.5v-8q0 -190 151 -190q63 0 94 25.5t35 65.5h-122v149h343v-92q0 -140 -92 -230t-265 -90zM393 -233l-110 27
l39 175l172 -12z" />
    <glyph glyph-name="gcommaaccent" unicode="&#x123;" horiz-adv-x="644" 
d="M399 565l-172 12l101 190l110 -27zM299 -194q-258 0 -280 198h195q14 -62 86 -62q100 0 100 100v81q-21 -40 -62.5 -66t-96.5 -26q-94 0 -156.5 65.5t-62.5 182.5v8q0 114 63 182.5t155 68.5q112 0 160 -87v72h197v-478q0 -117 -76 -178t-222 -61zM314 171q43 0 67.5 29
t24.5 79v7q0 49 -24 77.5t-68 28.5t-68 -28.5t-24 -78.5v-8q0 -49 24 -77.5t68 -28.5z" />
    <glyph glyph-name="Hcircumflex" unicode="&#x124;" horiz-adv-x="794" 
d="M65 0v715h227v-264h210v264h227v-715h-227v275h-210v-275h-227zM201 757l115 149h164l110 -149h-142l-54 47l-54 -47h-139z" />
    <glyph glyph-name="hcircumflex" unicode="&#x125;" horiz-adv-x="629" 
d="M47 0v750h197v-311q52 98 173 98q77 0 122.5 -49t45.5 -144v-344h-197v300q0 80 -66 80q-78 0 -78 -91v-289h-197z" />
    <glyph glyph-name="Hbar" unicode="&#x126;" horiz-adv-x="794" 
d="M7 526v101h58v88h227v-88h210v88h227v-88h58v-101h-58v-526h-227v275h-210v-275h-227v526h-58zM292 451h210v75h-210v-75z" />
    <glyph glyph-name="hbar" unicode="&#x127;" horiz-adv-x="629" 
d="M-6 581v103h53v66h197v-66h151v-103h-151v-142q52 98 173 98q77 0 122.5 -49t45.5 -144v-344h-197v300q0 80 -66 80q-78 0 -78 -91v-289h-197v581h-53z" />
    <glyph glyph-name="Itilde" unicode="&#x128;" horiz-adv-x="366" 
d="M68 0v715h229v-715h-229zM249 755q-32 0 -70.5 16t-50.5 16q-25 0 -30 -30h-109q5 79 40 119.5t86 40.5q30 0 70 -16t54 -16q24 0 29 30h110q-6 -79 -42.5 -119.5t-86.5 -40.5z" />
    <glyph glyph-name="itilde" unicode="&#x129;" horiz-adv-x="303" 
d="M53 0v523h196v-523h-196zM218 581q-33 0 -70 16t-48 16q-12 0 -20 -8.5t-10 -21.5h-104q4 80 36 121t82 41q30 0 68.5 -16t52.5 -16q25 0 30 31h104q-5 -80 -38.5 -121.5t-82.5 -41.5z" />
    <glyph glyph-name="Imacron" unicode="&#x12a;" horiz-adv-x="366" 
d="M68 0v715h229v-715h-229zM16 769v115h333v-115h-333z" />
    <glyph glyph-name="imacron" unicode="&#x12b;" horiz-adv-x="303" 
d="M24 605v107h255v-107h-255zM53 0v523h196v-523h-196z" />
    <glyph glyph-name="Ibreve" unicode="&#x12c;" horiz-adv-x="366" 
d="M68 0v715h229v-715h-229zM183 749q-78 0 -122 41t-49 116h124q3 -42 47 -42q19 0 32 11.5t15 30.5h124q-5 -74 -50.5 -115.5t-120.5 -41.5z" />
    <glyph glyph-name="ibreve" unicode="&#x12d;" horiz-adv-x="303" 
d="M53 0v523h196v-523h-196zM152 581q-76 0 -120.5 42t-48.5 121h119q3 -45 50 -45q46 0 51 45h118q-4 -78 -50 -120.5t-119 -42.5z" />
    <glyph glyph-name="Iogonek" unicode="&#x12e;" horiz-adv-x="366" 
d="M205 -182q-59 0 -93 22t-34 60q0 56 87 100h-97v715h229v-702q-50 -37 -50 -68q0 -24 28 -24q16 0 25 4v-90q-32 -17 -95 -17z" />
    <glyph glyph-name="iogonek" unicode="&#x12f;" horiz-adv-x="303" 
d="M161 -182q-55 0 -87 22t-32 60q0 60 87 100h-76v523h196v-513q-49 -38 -49 -69q0 -26 29 -26q16 0 25 4v-84q-32 -17 -93 -17zM151 562q-46 0 -76.5 28t-30.5 71t30.5 71.5t76.5 28.5q45 0 75.5 -28.5t30.5 -71.5t-30.5 -71t-75.5 -28z" />
    <glyph glyph-name="Idotaccent" unicode="&#x130;" horiz-adv-x="366" 
d="M68 0v715h229v-715h-229zM184 752q-44 0 -73.5 27t-29.5 68t29.5 68.5t73.5 27.5t73 -27.5t29 -68.5t-29.5 -68t-72.5 -27z" />
    <glyph glyph-name="dotlessi" unicode="&#x131;" horiz-adv-x="303" 
d="M53 0v523h196v-523h-196z" />
    <glyph glyph-name="IJ" unicode="&#x132;" horiz-adv-x="830" 
d="M68 0v715h229v-715h-229zM509 -9q-86 0 -136 25v167q43 -13 85 -13q90 0 90 93v452h227v-453q0 -271 -266 -271z" />
    <glyph glyph-name="ij" unicode="&#x133;" horiz-adv-x="605" 
d="M53 0v523h196v-523h-196zM151 562q-46 0 -76.5 28t-30.5 71t30.5 71.5t76.5 28.5q45 0 75.5 -28.5t30.5 -71.5t-30.5 -71t-75.5 -28zM293 -183v141q32 2 46.5 15t14.5 43v507h197v-512q0 -95 -57 -144.5t-201 -49.5zM453 562q-46 0 -76.5 28t-30.5 71t30.5 71.5
t76.5 28.5q45 0 75.5 -28.5t30.5 -71.5t-30.5 -71t-75.5 -28z" />
    <glyph glyph-name="Jcircumflex" unicode="&#x134;" horiz-adv-x="489" 
d="M124 757l115 149h164l110 -149h-142l-54 47l-54 -47h-139zM168 -9q-86 0 -136 25v167q43 -13 85 -13q90 0 90 93v452h227v-453q0 -271 -266 -271z" />
    <glyph glyph-name="jcircumflex" unicode="&#x135;" horiz-adv-x="303" 
d="M-9 -183v141q32 2 46.5 15t14.5 43v507h197v-512q0 -95 -57 -144.5t-201 -49.5zM-41 580l125 166h138l120 -166h-137l-56 53l-56 -53h-134z" />
    <glyph glyph-name="Kcommaaccent" unicode="&#x136;" horiz-adv-x="745" 
d="M65 0v715h227v-271l198 271h235l-251 -330l265 -385h-261l-186 286v-286h-227zM370 -233l-110 27l39 175l172 -12z" />
    <glyph glyph-name="kcommaaccent" unicode="&#x137;" horiz-adv-x="589" 
d="M47 0v750h197v-425l127 198h202l-161 -234l174 -289h-218l-124 218v-218h-197zM295 -233l-110 27l39 175l172 -12z" />
    <glyph glyph-name="Lacute" unicode="&#x139;" horiz-adv-x="582" 
d="M99 757l51 149h201l-103 -149h-149zM65 0v715h227v-540h260v-175h-487z" />
    <glyph glyph-name="lacute" unicode="&#x13a;" horiz-adv-x="300" 
d="M52 0v750h196v-750h-196z" />
    <glyph glyph-name="Lcommaaccent" unicode="&#x13b;" horiz-adv-x="582" 
d="M293 -233l-110 27l39 175l172 -12zM65 0v715h227v-540h260v-175h-487z" />
    <glyph glyph-name="lcommaaccent" unicode="&#x13c;" horiz-adv-x="300" 
d="M139 -233l-110 27l39 175l172 -12zM52 0v750h196v-750h-196z" />
    <glyph glyph-name="Lcaron" unicode="&#x13d;" horiz-adv-x="582" 
d="M353 535l15 180h158l-61 -180h-112zM65 0v715h227v-540h260v-175h-487z" />
    <glyph glyph-name="lcaron" unicode="&#x13e;" horiz-adv-x="300" 
d="M283 575l8 175h140l-50 -175h-98zM52 0v750h196v-750h-196z" />
    <glyph glyph-name="Ldot" unicode="&#x13f;" horiz-adv-x="613" 
d="M65 0v715h227v-540h260v-175h-487zM488 297q-47 0 -78.5 31t-31.5 76t31.5 76.5t78.5 31.5q48 0 80 -31.5t32 -76.5t-32 -76t-80 -31z" />
    <glyph glyph-name="ldot" unicode="&#x140;" horiz-adv-x="479" 
d="M52 0v750h196v-750h-196zM387 251q-47 0 -78.5 31t-31.5 76t31.5 76.5t78.5 31.5q48 0 80 -31.5t32 -76.5t-32 -76t-80 -31z" />
    <glyph glyph-name="Lslash" unicode="&#x141;" 
d="M22 224v116l61 21v354h228v-276l176 61v-116l-176 -61v-148h260v-175h-488v245z" />
    <glyph glyph-name="lslash" unicode="&#x142;" horiz-adv-x="344" 
d="M16 252v124l58 27v347h196v-256l61 29v-123l-61 -29v-371h-196v279z" />
    <glyph glyph-name="Nacute" unicode="&#x143;" horiz-adv-x="787" 
d="M330 757l51 149h201l-103 -149h-149zM65 0v715h254l203 -378v378h199v-715h-217l-239 428v-428h-200z" />
    <glyph glyph-name="nacute" unicode="&#x144;" horiz-adv-x="629" 
d="M240 578l52 169h193l-104 -169h-141zM47 0v523h197v-84q52 98 173 98q77 0 122.5 -49t45.5 -144v-344h-197v300q0 80 -66 80q-78 0 -78 -91v-289h-197z" />
    <glyph glyph-name="Ncommaaccent" unicode="&#x145;" horiz-adv-x="787" 
d="M379 -233l-110 27l39 175l172 -12zM65 0v715h254l203 -378v378h199v-715h-217l-239 428v-428h-200z" />
    <glyph glyph-name="ncommaaccent" unicode="&#x146;" horiz-adv-x="629" 
d="M303 -233l-110 27l39 175l172 -12zM47 0v523h197v-84q52 98 173 98q77 0 122.5 -49t45.5 -144v-344h-197v300q0 80 -66 80q-78 0 -78 -91v-289h-197z" />
    <glyph glyph-name="Ncaron" unicode="&#x147;" horiz-adv-x="787" 
d="M327 757l-110 149h142l54 -47l54 47h139l-115 -149h-164zM65 0v715h254l203 -378v378h199v-715h-217l-239 428v-428h-200z" />
    <glyph glyph-name="ncaron" unicode="&#x148;" horiz-adv-x="629" 
d="M243 580l-120 166h137l56 -52l56 52h134l-125 -166h-138zM47 0v523h197v-84q52 98 173 98q77 0 122.5 -49t45.5 -144v-344h-197v300q0 80 -66 80q-78 0 -78 -91v-289h-197z" />
    <glyph glyph-name="napostrophe" unicode="&#x149;" horiz-adv-x="769" 
d="M81 417l-109 42l78 269l171 -55zM186 0v523h197v-84q52 98 173 98q77 0 122.5 -49t45.5 -144v-344h-197v300q0 80 -66 80q-78 0 -78 -91v-289h-197z" />
    <glyph glyph-name="Eng" unicode="&#x14a;" horiz-adv-x="787" 
d="M473 -192q-73 0 -128 23v159q43 -13 75 -13q62 0 75 42l-227 420v-439h-203v715h257l197 -384v384h202v-689q0 -100 -63 -159t-185 -59z" />
    <glyph glyph-name="eng" unicode="&#x14b;" horiz-adv-x="629" 
d="M328 -183v141q32 2 46 15t14 43v284q0 80 -66 80q-78 0 -78 -91v-289h-197v523h197v-84q52 98 173 98q77 0 122.5 -49t45.5 -144v-333q0 -95 -57 -144.5t-200 -49.5z" />
    <glyph glyph-name="Omacron" unicode="&#x14c;" horiz-adv-x="820" 
d="M242 769v115h333v-115h-333zM411 165q67 0 106.5 50t39.5 139v8q0 89 -39.5 138t-108.5 49q-67 0 -106 -48.5t-39 -138.5v-8q0 -90 39.5 -139.5t107.5 -49.5zM405 -13q-174 0 -276 101t-102 265v8q0 163 109 264t273 101q169 0 276.5 -96.5t107.5 -262.5v-8
q0 -168 -106 -270t-282 -102z" />
    <glyph glyph-name="omacron" unicode="&#x14d;" horiz-adv-x="626" 
d="M154 605v107h316v-107h-316zM314 132q90 0 90 127v7q0 126 -90 126q-93 0 -93 -123v-8q0 -129 93 -129zM313 -13q-127 0 -209 71.5t-82 196.5v8q0 125 82.5 199.5t209.5 74.5q126 0 208 -73t82 -196v-8q0 -126 -82.5 -199.5t-208.5 -73.5z" />
    <glyph glyph-name="Obreve" unicode="&#x14e;" horiz-adv-x="820" 
d="M409 749q-78 0 -122 41t-49 116h124q3 -42 47 -42q19 0 32 11.5t15 30.5h124q-5 -74 -50.5 -115.5t-120.5 -41.5zM411 165q67 0 106.5 50t39.5 139v8q0 89 -39.5 138t-108.5 49q-67 0 -106 -48.5t-39 -138.5v-8q0 -90 39.5 -139.5t107.5 -49.5zM405 -13q-174 0 -276 101
t-102 265v8q0 163 109 264t273 101q169 0 276.5 -96.5t107.5 -262.5v-8q0 -168 -106 -270t-282 -102z" />
    <glyph glyph-name="obreve" unicode="&#x14f;" horiz-adv-x="626" 
d="M314 132q90 0 90 127v7q0 126 -90 126q-93 0 -93 -123v-8q0 -129 93 -129zM313 -13q-127 0 -209 71.5t-82 196.5v8q0 125 82.5 199.5t209.5 74.5q126 0 208 -73t82 -196v-8q0 -126 -82.5 -199.5t-208.5 -73.5zM312 581q-76 0 -120.5 42t-48.5 121h119q3 -45 50 -45
q46 0 51 45h118q-4 -78 -50 -120.5t-119 -42.5z" />
    <glyph glyph-name="Ohungarumlaut" unicode="&#x150;" horiz-adv-x="820" 
d="M230 757l42 149h163l-75 -149h-130zM432 757l41 149h164l-75 -149h-130zM411 165q67 0 106.5 50t39.5 139v8q0 89 -39.5 138t-108.5 49q-67 0 -106 -48.5t-39 -138.5v-8q0 -90 39.5 -139.5t107.5 -49.5zM405 -13q-174 0 -276 101t-102 265v8q0 163 109 264t273 101
q169 0 276.5 -96.5t107.5 -262.5v-8q0 -168 -106 -270t-282 -102z" />
    <glyph glyph-name="ohungarumlaut" unicode="&#x151;" horiz-adv-x="626" 
d="M151 578l44 169h148l-78 -169h-114zM332 578l44 169h148l-77 -169h-115zM314 132q90 0 90 127v7q0 126 -90 126q-93 0 -93 -123v-8q0 -129 93 -129zM313 -13q-127 0 -209 71.5t-82 196.5v8q0 125 82.5 199.5t209.5 74.5q126 0 208 -73t82 -196v-8q0 -126 -82.5 -199.5
t-208.5 -73.5z" />
    <glyph glyph-name="OE" unicode="&#x152;" horiz-adv-x="983" 
d="M27 356q0 172 99.5 265.5t285.5 93.5h525v-174h-268v-101h209v-159h-209v-107h283v-174h-540q-189 0 -287 89t-98 260v7zM444 541h-25q-82 0 -118.5 -43t-36.5 -137v-8q0 -97 37 -138t120 -41h23v367z" />
    <glyph glyph-name="oe" unicode="&#x153;" horiz-adv-x="984" 
d="M313 -13q-127 0 -209.5 71.5t-82.5 196.5v8q0 125 83 200t210 75q118 0 189 -73q73 73 188 73q118 0 195 -69t77 -203v-48h-363q4 -47 30 -72t68 -25q71 0 82 56h183q-11 -91 -80.5 -140.5t-191.5 -49.5q-121 0 -192 69q-71 -69 -186 -69zM314 132q90 0 90 126v8
q0 126 -90 126q-92 0 -92 -123v-8q0 -129 92 -129zM601 321h172q-3 90 -82 90q-37 0 -60.5 -23t-29.5 -67z" />
    <glyph glyph-name="Racute" unicode="&#x154;" horiz-adv-x="710" 
d="M259 757l51 149h201l-103 -149h-149zM65 0v715h292q148 0 223.5 -58.5t75.5 -173.5v-4q0 -132 -121 -187l163 -292h-238l-133 245h-36v-245h-226zM291 391h53q93 0 93 78v4q0 38 -22.5 55t-69.5 17h-54v-154z" />
    <glyph glyph-name="racute" unicode="&#x155;" horiz-adv-x="438" 
d="M165 578l52 169h193l-104 -169h-141zM47 0v523h197v-106q47 115 168 113v-184q-168 9 -168 -105v-241h-197z" />
    <glyph glyph-name="Rcommaaccent" unicode="&#x156;" horiz-adv-x="710" 
d="M365 -233l-110 27l39 175l172 -12zM65 0v715h292q148 0 223.5 -58.5t75.5 -173.5v-4q0 -132 -121 -187l163 -292h-238l-133 245h-36v-245h-226zM291 391h53q93 0 93 78v4q0 38 -22.5 55t-69.5 17h-54v-154z" />
    <glyph glyph-name="rcommaaccent" unicode="&#x157;" horiz-adv-x="438" 
d="M138 -233l-110 27l39 175l172 -12zM47 0v523h197v-106q47 115 168 113v-184q-168 9 -168 -105v-241h-197z" />
    <glyph glyph-name="Rcaron" unicode="&#x158;" horiz-adv-x="710" 
d="M256 757l-110 149h142l54 -47l54 47h139l-115 -149h-164zM65 0v715h292q148 0 223.5 -58.5t75.5 -173.5v-4q0 -132 -121 -187l163 -292h-238l-133 245h-36v-245h-226zM291 391h53q93 0 93 78v4q0 38 -22.5 55t-69.5 17h-54v-154z" />
    <glyph glyph-name="rcaron" unicode="&#x159;" horiz-adv-x="438" 
d="M168 580l-120 166h137l56 -52l56 52h134l-125 -166h-138zM47 0v523h197v-106q47 115 168 113v-184q-168 9 -168 -105v-241h-197z" />
    <glyph glyph-name="Sacute" unicode="&#x15a;" horiz-adv-x="653" 
d="M334 -13q-307 0 -315 242h215q7 -82 100 -82q39 0 59 16t20 43q0 28 -21.5 40.5t-80.5 20.5q-154 17 -215 68t-61 162q0 101 77.5 164.5t208.5 63.5q270 0 288 -228h-210q-8 69 -78 69q-34 0 -52.5 -14t-18.5 -38q0 -26 21 -39.5t79 -20.5q145 -15 212.5 -63t67.5 -161
q0 -104 -78.5 -173.5t-217.5 -69.5zM241 757l51 149h201l-103 -149h-149z" />
    <glyph glyph-name="sacute" unicode="&#x15b;" horiz-adv-x="523" 
d="M184 578l52 169h193l-104 -169h-141zM261 -13q-116 0 -180 46.5t-66 134.5h180q5 -28 19 -41t46 -13q55 0 55 37q0 18 -20 27.5t-72 16.5q-109 12 -156 48t-47 118q0 86 65.5 131.5t167.5 45.5q223 0 239 -173h-177q-9 49 -59 49q-52 0 -52 -36q0 -18 19 -26.5t63 -13.5
q119 -14 170 -49.5t51 -117.5q0 -93 -65 -138.5t-181 -45.5z" />
    <glyph glyph-name="Scircumflex" unicode="&#x15c;" horiz-adv-x="653" 
d="M129 757l115 149h164l110 -149h-142l-54 47l-54 -47h-139zM334 -13q-307 0 -315 242h215q7 -82 100 -82q39 0 59 16t20 43q0 28 -21.5 40.5t-80.5 20.5q-154 17 -215 68t-61 162q0 101 77.5 164.5t208.5 63.5q270 0 288 -228h-210q-8 69 -78 69q-34 0 -52.5 -14
t-18.5 -38q0 -26 21 -39.5t79 -20.5q145 -15 212.5 -63t67.5 -161q0 -104 -78.5 -173.5t-217.5 -69.5z" />
    <glyph glyph-name="scircumflex" unicode="&#x15d;" horiz-adv-x="523" 
d="M65 580l125 166h138l120 -166h-137l-56 53l-56 -53h-134zM261 -13q-116 0 -180 46.5t-66 134.5h180q5 -28 19 -41t46 -13q55 0 55 37q0 18 -20 27.5t-72 16.5q-109 12 -156 48t-47 118q0 86 65.5 131.5t167.5 45.5q223 0 239 -173h-177q-9 49 -59 49q-52 0 -52 -36
q0 -18 19 -26.5t63 -13.5q119 -14 170 -49.5t51 -117.5q0 -93 -65 -138.5t-181 -45.5z" />
    <glyph glyph-name="Scedilla" unicode="&#x15e;" horiz-adv-x="653" 
d="M307 -228q-56 0 -90.5 24t-41.5 70h90q6 -26 35 -26q30 0 30 29q0 30 -33 30q-22 0 -32 -12l-40 41l41 63q-241 24 -247 238h215q7 -82 100 -82q39 0 59 16t20 43q0 28 -21.5 40.5t-80.5 20.5q-154 17 -215 68t-61 162q0 101 77.5 164.5t208.5 63.5q270 0 288 -228h-210
q-8 69 -78 69q-34 0 -52.5 -14t-18.5 -38q0 -26 21 -39.5t79 -20.5q145 -15 212.5 -63t67.5 -161q0 -103 -77 -172t-213 -71l-22 -31q48 5 81 -17.5t33 -69.5q0 -45 -34 -71t-91 -26z" />
    <glyph glyph-name="scedilla" unicode="&#x15f;" horiz-adv-x="523" 
d="M243 -228q-56 0 -90.5 24t-41.5 70h90q6 -26 35 -26q30 0 30 29q0 30 -33 30q-22 0 -32 -12l-40 41l41 63q-89 11 -137.5 56t-49.5 121h180q5 -28 19 -41t46 -13q55 0 55 37q0 18 -20 27.5t-72 16.5q-109 12 -156 48t-47 118q0 86 65.5 131.5t167.5 45.5q223 0 239 -173
h-177q-9 49 -59 49q-52 0 -52 -36q0 -18 19 -26.5t63 -13.5q119 -14 170 -49.5t51 -117.5q0 -90 -61 -135.5t-170 -48.5l-22 -31q48 5 81 -17.5t33 -69.5q0 -45 -34 -71t-91 -26z" />
    <glyph glyph-name="Scaron" unicode="&#x160;" horiz-adv-x="653" 
d="M238 757l-110 149h142l54 -47l54 47h139l-115 -149h-164zM334 -13q-307 0 -315 242h215q7 -82 100 -82q39 0 59 16t20 43q0 28 -21.5 40.5t-80.5 20.5q-154 17 -215 68t-61 162q0 101 77.5 164.5t208.5 63.5q270 0 288 -228h-210q-8 69 -78 69q-34 0 -52.5 -14t-18.5 -38
q0 -26 21 -39.5t79 -20.5q145 -15 212.5 -63t67.5 -161q0 -104 -78.5 -173.5t-217.5 -69.5z" />
    <glyph glyph-name="scaron" unicode="&#x161;" horiz-adv-x="523" 
d="M182 580l-120 166h137l56 -52l56 52h134l-125 -166h-138zM261 -13q-116 0 -180 46.5t-66 134.5h180q5 -28 19 -41t46 -13q55 0 55 37q0 18 -20 27.5t-72 16.5q-109 12 -156 48t-47 118q0 86 65.5 131.5t167.5 45.5q223 0 239 -173h-177q-9 49 -59 49q-52 0 -52 -36
q0 -18 19 -26.5t63 -13.5q119 -14 170 -49.5t51 -117.5q0 -93 -65 -138.5t-181 -45.5z" />
    <glyph glyph-name="Tcommaaccent" unicode="&#x162;" horiz-adv-x="629" 
d="M301 -233l-110 27l39 175l172 -12zM200 0v541h-180v174h589v-174h-181v-541h-228z" />
    <glyph glyph-name="tcommaaccent" unicode="&#x163;" horiz-adv-x="396" 
d="M200 -233l-110 27l39 175l172 -12zM265 -12q-193 0 -193 187v216h-61v132h61v107h197v-107h100v-132h-100v-197q0 -51 51 -51q26 0 49 8v-148q-51 -15 -104 -15z" />
    <glyph glyph-name="Tcaron" unicode="&#x164;" horiz-adv-x="629" 
d="M227 757l-110 149h142l54 -47l54 47h139l-115 -149h-164zM200 0v541h-180v174h589v-174h-181v-541h-228z" />
    <glyph glyph-name="tcaron" unicode="&#x165;" horiz-adv-x="396" 
d="M310 575l8 175h140l-50 -175h-98zM265 -12q-193 0 -193 187v216h-61v132h61v107h197v-107h100v-132h-100v-197q0 -51 51 -51q26 0 49 8v-148q-51 -15 -104 -15z" />
    <glyph glyph-name="Tbar" unicode="&#x166;" horiz-adv-x="629" 
d="M78 268v140h122v133h-180v174h589v-174h-181v-133h123v-140h-123v-268h-228v268h-122z" />
    <glyph glyph-name="tbar" unicode="&#x167;" horiz-adv-x="396" 
d="M12 235v96h60v60h-60v132h60v107h197v-107h100v-132h-100v-60h100v-96h-100v-42q0 -51 51 -51q24 0 48 9v-148q-64 -16 -103 -16q-193 0 -193 188v60h-60z" />
    <glyph glyph-name="Utilde" unicode="&#x168;" horiz-adv-x="776" 
d="M388 -13q-158 0 -242.5 78t-84.5 230v420h226v-411q0 -74 21.5 -106.5t79.5 -32.5t79 33t21 107v410h228v-418q0 -157 -86.5 -233.5t-241.5 -76.5zM452 755q-32 0 -70.5 16t-50.5 16q-25 0 -30 -30h-109q5 79 40 119.5t86 40.5q30 0 70 -16t54 -16q24 0 29 30h110
q-6 -79 -42.5 -119.5t-86.5 -40.5z" />
    <glyph glyph-name="utilde" unicode="&#x169;" horiz-adv-x="628" 
d="M218 -13q-78 0 -126.5 49.5t-48.5 143.5v343h197v-309q0 -80 66 -80q78 0 78 91v298h197v-523h-197v81q-49 -94 -166 -94zM378 581q-33 0 -70 16t-48 16q-12 0 -20 -8.5t-10 -21.5h-104q4 80 36 121t82 41q30 0 68.5 -16t52.5 -16q25 0 30 31h104q-5 -80 -38.5 -121.5
t-82.5 -41.5z" />
    <glyph glyph-name="Umacron" unicode="&#x16a;" horiz-adv-x="776" 
d="M388 -13q-158 0 -242.5 78t-84.5 230v420h226v-411q0 -74 21.5 -106.5t79.5 -32.5t79 33t21 107v410h228v-418q0 -157 -86.5 -233.5t-241.5 -76.5zM219 769v115h333v-115h-333z" />
    <glyph glyph-name="umacron" unicode="&#x16b;" horiz-adv-x="628" 
d="M218 -13q-78 0 -126.5 49.5t-48.5 143.5v343h197v-309q0 -80 66 -80q78 0 78 91v298h197v-523h-197v81q-49 -94 -166 -94zM154 605v107h316v-107h-316z" />
    <glyph glyph-name="Ubreve" unicode="&#x16c;" horiz-adv-x="776" 
d="M388 -13q-158 0 -242.5 78t-84.5 230v420h226v-411q0 -74 21.5 -106.5t79.5 -32.5t79 33t21 107v410h228v-418q0 -157 -86.5 -233.5t-241.5 -76.5zM386 749q-78 0 -122 41t-49 116h124q3 -42 47 -42q19 0 32 11.5t15 30.5h124q-5 -74 -50.5 -115.5t-120.5 -41.5z" />
    <glyph glyph-name="ubreve" unicode="&#x16d;" horiz-adv-x="628" 
d="M218 -13q-78 0 -126.5 49.5t-48.5 143.5v343h197v-309q0 -80 66 -80q78 0 78 91v298h197v-523h-197v81q-49 -94 -166 -94zM312 581q-76 0 -120.5 42t-48.5 121h119q3 -45 50 -45q46 0 51 45h118q-4 -78 -50 -120.5t-119 -42.5z" />
    <glyph glyph-name="Uring" unicode="&#x16e;" horiz-adv-x="776" 
d="M388 -13q-158 0 -242.5 78t-84.5 230v420h226v-411q0 -74 21.5 -106.5t79.5 -32.5t79 33t21 107v410h228v-418q0 -157 -86.5 -233.5t-241.5 -76.5zM386 790q20 0 32.5 14t12.5 36t-12.5 35.5t-32.5 13.5t-32.5 -13.5t-12.5 -35.5t12.5 -36t32.5 -14zM386 722
q-50 0 -86 34.5t-36 83.5t36 83.5t86 34.5t86 -34.5t36 -83.5t-36 -83.5t-86 -34.5z" />
    <glyph glyph-name="uring" unicode="&#x16f;" horiz-adv-x="628" 
d="M311 620q19 0 31.5 13.5t12.5 34.5q0 22 -12 35.5t-32 13.5t-32 -13.5t-12 -35.5q0 -21 12.5 -34.5t31.5 -13.5zM311 552q-50 0 -85 34t-35 82t35.5 82.5t84.5 34.5t84.5 -34.5t35.5 -82.5t-35 -82t-85 -34zM218 -13q-78 0 -126.5 49.5t-48.5 143.5v343h197v-309
q0 -80 66 -80q78 0 78 91v298h197v-523h-197v81q-49 -94 -166 -94z" />
    <glyph glyph-name="Uhungarumlaut" unicode="&#x170;" horiz-adv-x="776" 
d="M207 757l42 149h163l-75 -149h-130zM409 757l41 149h164l-75 -149h-130zM388 -13q-158 0 -242.5 78t-84.5 230v420h226v-411q0 -74 21.5 -106.5t79.5 -32.5t79 33t21 107v410h228v-418q0 -157 -86.5 -233.5t-241.5 -76.5z" />
    <glyph glyph-name="uhungarumlaut" unicode="&#x171;" horiz-adv-x="628" 
d="M218 -13q-78 0 -126.5 49.5t-48.5 143.5v343h197v-309q0 -80 66 -80q78 0 78 91v298h197v-523h-197v81q-49 -94 -166 -94zM151 578l44 169h148l-78 -169h-114zM332 578l44 169h148l-77 -169h-115z" />
    <glyph glyph-name="Uogonek" unicode="&#x172;" horiz-adv-x="776" 
d="M426 -182q-56 0 -89.5 21.5t-33.5 58.5q0 49 64 90q-149 5 -227.5 82.5t-78.5 224.5v420h226v-411q0 -74 21.5 -106.5t79.5 -32.5t79 33t21 107v410h228v-418q0 -207 -158 -280q-62 -27 -75 -42q-12 -13 -12 -29q0 -25 29 -25q16 0 25 4v-90q-32 -17 -99 -17z" />
    <glyph glyph-name="uogonek" unicode="&#x173;" horiz-adv-x="628" 
d="M490 -182q-55 0 -87 22t-32 60q0 59 88 100h-75v81q-49 -94 -166 -94q-78 0 -126.5 49.5t-48.5 143.5v343h197v-309q0 -80 66 -80q78 0 78 91v298h197v-510q-52 -41 -52 -72q0 -26 30 -26q16 0 25 4v-84q-34 -17 -94 -17z" />
    <glyph glyph-name="Wcircumflex" unicode="&#x174;" horiz-adv-x="1009" 
d="M310 757l115 149h164l110 -149h-142l-54 47l-54 -47h-139zM176 0l-166 715h229l82 -427l86 427h197l97 -432l87 432h210l-166 -715h-229l-100 427l-101 -427h-226z" />
    <glyph glyph-name="wcircumflex" unicode="&#x175;" horiz-adv-x="854" 
d="M234 580l125 166h138l120 -166h-137l-56 53l-56 -53h-134zM162 0l-157 523h205l68 -293l80 293h158l70 -293l79 293h184l-166 -523h-185l-73 273l-72 -273h-191z" />
    <glyph glyph-name="Ycircumflex" unicode="&#x176;" horiz-adv-x="692" 
d="M237 0v305l-232 410h246l109 -224l110 224h217l-222 -409v-306h-228zM158 757l115 149h164l110 -149h-142l-54 47l-54 -47h-139z" />
    <glyph glyph-name="ycircumflex" unicode="&#x177;" 
d="M129 -174l85 226l-209 471h213l99 -261l92 261h186l-279 -697h-187zM117 580l125 166h138l120 -166h-137l-56 53l-56 -53h-134z" />
    <glyph glyph-name="Ydieresis" unicode="&#x178;" horiz-adv-x="692" 
d="M237 0v305l-232 410h246l109 -224l110 224h217l-222 -409v-306h-228zM239 752q-38 0 -64.5 26t-26.5 63t26.5 63t64.5 26t65 -26t27 -63t-27 -63t-65 -26zM466 752q-38 0 -64.5 26t-26.5 63t26.5 63t64.5 26t65 -26t27 -63t-27 -63t-65 -26z" />
    <glyph glyph-name="Zacute" unicode="&#x179;" horiz-adv-x="627" 
d="M237 757l51 149h201l-103 -149h-149zM10 0v24l286 521h-246v170h563v-24l-283 -520h266v-171h-586z" />
    <glyph glyph-name="zacute" unicode="&#x17a;" horiz-adv-x="513" 
d="M187 578l52 169h193l-104 -169h-141zM8 0v19l214 357h-191v147h471v-20l-224 -357h210v-146h-480z" />
    <glyph glyph-name="Zdotaccent" unicode="&#x17b;" horiz-adv-x="627" 
d="M10 0v24l286 521h-246v170h563v-24l-283 -520h266v-171h-586zM321 752q-44 0 -73.5 27t-29.5 68t29.5 68.5t73.5 27.5t73 -27.5t29 -68.5t-29.5 -68t-72.5 -27z" />
    <glyph glyph-name="zdotaccent" unicode="&#x17c;" horiz-adv-x="513" 
d="M8 0v19l214 357h-191v147h471v-20l-224 -357h210v-146h-480zM263 570q-45 0 -74 27t-29 68t29 68.5t74 27.5q44 0 73.5 -27.5t29.5 -68.5t-29.5 -68t-73.5 -27z" />
    <glyph glyph-name="Zcaron" unicode="&#x17d;" horiz-adv-x="627" 
d="M234 757l-110 149h142l54 -47l54 47h139l-115 -149h-164zM10 0v24l286 521h-246v170h563v-24l-283 -520h266v-171h-586z" />
    <glyph glyph-name="zcaron" unicode="&#x17e;" horiz-adv-x="513" 
d="M190 580l-120 166h137l56 -52l56 52h134l-125 -166h-138zM8 0v19l214 357h-191v147h471v-20l-224 -357h210v-146h-480z" />
    <glyph glyph-name="florin" unicode="&#x192;" horiz-adv-x="456" 
d="M22 283v132h89l17 119q26 191 230 191q44 0 80 -11v-146q-20 7 -49 7q-59 0 -68 -58l-15 -102h111v-132h-129l-65 -465h-195l65 465h-71z" />
    <glyph glyph-name="Aringacute" unicode="&#x1fa;" horiz-adv-x="760" 
d="M9 0l225 715h293l224 -715h-240l-33 119h-226l-32 -119h-211zM381 740q-50 0 -86 34.5t-36 83.5t36 83.5t86 34.5t86 -34.5t36 -83.5t-36 -83.5t-86 -34.5zM306 993l51 149h201l-103 -149h-149zM366 532l-71 -259h141zM381 808q20 0 32.5 14t12.5 36t-12.5 35.5
t-32.5 13.5t-32.5 -13.5t-12.5 -35.5t12.5 -36t32.5 -14z" />
    <glyph glyph-name="aringacute" unicode="&#x1fb;" horiz-adv-x="585" 
d="M198 -13q-77 0 -127.5 39.5t-50.5 118.5q0 90 70.5 130.5t210.5 40.5h45v9q0 38 -12 57t-49 19q-56 0 -62 -56h-184q6 94 74.5 143.5t183.5 49.5q117 0 180.5 -49.5t63.5 -150.5v-338h-190v60q-45 -73 -153 -73zM269 119q34 0 55.5 17.5t21.5 46.5v27h-42q-50 0 -70 -11
t-20 -39q0 -41 55 -41zM295 638q19 0 31.5 13.5t12.5 34.5q0 22 -12 35.5t-32 13.5t-32 -13.5t-12 -35.5q0 -21 12.5 -34.5t31.5 -13.5zM295 570q-50 0 -85 34t-35 82t35.5 82.5t84.5 34.5t84.5 -34.5t35.5 -82.5t-35 -82t-85 -34zM225 829l51 149h201l-103 -149h-149z" />
    <glyph glyph-name="AEacute" unicode="&#x1fc;" horiz-adv-x="1012" 
d="M7 0l313 715h645v-174h-275v-101h217v-159h-217v-107h291v-174h-516v135h-187l-56 -135h-215zM531 757l51 149h201l-103 -149h-149zM447 541l-107 -256h125v256h-18z" />
    <glyph glyph-name="aeacute" unicode="&#x1fd;" horiz-adv-x="913" 
d="M626 -13q-141 0 -206 88q-67 -88 -203 -88q-87 0 -142.5 39t-55.5 119q0 90 70.5 132t209.5 42h49v6q0 38 -13.5 57t-49.5 19q-56 0 -63 -56h-184q6 94 74 143.5t180 49.5q118 0 166 -57q65 57 165 57q117 0 193 -68.5t76 -203.5v-47h-357q8 -98 94 -98q70 0 81 56h182
q-11 -91 -79 -140.5t-187 -49.5zM399 578l52 169h193l-104 -169h-141zM536 319h167q-5 92 -80 92q-37 0 -60 -24t-27 -68zM269 119q37 0 58 17.5t21 46.5v33h-46q-47 0 -68 -11.5t-21 -39.5q0 -46 56 -46z" />
    <glyph glyph-name="Oslashacute" unicode="&#x1fe;" horiz-adv-x="820" 
d="M91 -33l-57 56l78 82q-85 97 -85 248v8q0 163 109 263.5t273 100.5q132 0 231 -62l73 78l57 -56l-68 -72q92 -95 92 -246v-8q0 -168 -106.5 -270t-282.5 -102q-139 0 -233 65zM410 165q69 0 109 50t40 140v8q0 49 -12 86l-235 -248q38 -36 98 -36zM261 354q0 -48 10 -81
l231 245q-39 31 -93 31q-69 0 -108.5 -48t-39.5 -139v-8zM326 757l51 149h201l-103 -149h-149z" />
    <glyph glyph-name="oslashacute" unicode="&#x1ff;" horiz-adv-x="626" 
d="M73 -39l-51 46l64 68q-65 71 -65 180v8q0 125 83 200t210 75q95 0 167 -43l65 69l50 -46l-62 -66q70 -72 70 -184v-8q0 -126 -82.5 -199.5t-208.5 -73.5q-101 0 -173 45zM237 578l52 169h193l-104 -169h-141zM314 131q93 0 93 127v8q0 18 -4 46l-150 -160q23 -21 61 -21z
M219 261q0 -23 3 -42l147 157q-23 17 -55 17q-95 0 -95 -124v-8z" />
    <glyph glyph-name="Scommaaccent" unicode="&#x218;" horiz-adv-x="655" 
d="M312 -233l-110 27l39 175l172 -12zM334 -13q-307 0 -315 242h215q7 -82 100 -82q39 0 59 16t20 43q0 28 -21.5 40.5t-80.5 20.5q-154 17 -215 68t-61 162q0 101 77.5 164.5t208.5 63.5q270 0 288 -228h-210q-8 69 -78 69q-34 0 -52.5 -14t-18.5 -38q0 -26 21 -39.5
t79 -20.5q145 -15 212.5 -63t67.5 -161q0 -104 -78.5 -173.5t-217.5 -69.5z" />
    <glyph glyph-name="scommaaccent" unicode="&#x219;" horiz-adv-x="521" 
d="M245 -233l-110 27l39 175l172 -12zM259 -13q-116 0 -180 46.5t-66 134.5h180q5 -28 19 -41t46 -13q55 0 55 37q0 18 -20 27.5t-72 16.5q-109 12 -156 48t-47 118q0 86 65.5 131.5t167.5 45.5q223 0 239 -173h-177q-9 49 -59 49q-52 0 -52 -36q0 -18 19 -26.5t63 -13.5
q119 -14 170 -49.5t51 -117.5q0 -93 -65 -138.5t-181 -45.5z" />
    <glyph glyph-name="uni0237" unicode="&#x237;" horiz-adv-x="303" 
d="M-9 -183v141q32 2 46.5 15t14.5 43v507h197v-512q0 -95 -57 -144.5t-201 -49.5z" />
    <glyph glyph-name="circumflex" unicode="&#x2c6;" horiz-adv-x="400" 
d="M8 580l125 166h138l120 -166h-137l-56 53l-56 -53h-134z" />
    <glyph glyph-name="caron" unicode="&#x2c7;" horiz-adv-x="400" 
d="M128 580l-120 166h137l56 -52l56 52h134l-125 -166h-138z" />
    <glyph glyph-name="breve" unicode="&#x2d8;" horiz-adv-x="400" 
d="M200 581q-76 0 -120.5 42t-48.5 121h119q3 -45 50 -45q46 0 51 45h118q-4 -78 -50 -120.5t-119 -42.5z" />
    <glyph glyph-name="dotaccent" unicode="&#x2d9;" horiz-adv-x="400" 
d="M200 570q-45 0 -74 27t-29 68t29 68.5t74 27.5q44 0 73.5 -27.5t29.5 -68.5t-29.5 -68t-73.5 -27z" />
    <glyph glyph-name="ring" unicode="&#x2da;" horiz-adv-x="400" 
d="M200 642q19 0 31.5 13.5t12.5 34.5q0 22 -12 35.5t-32 13.5t-32 -13.5t-12 -35.5q0 -21 12.5 -34.5t31.5 -13.5zM200 574q-50 0 -85 34t-35 82t35.5 82.5t84.5 34.5t84.5 -34.5t35.5 -82.5t-35 -82t-85 -34z" />
    <glyph glyph-name="ogonek" unicode="&#x2db;" horiz-adv-x="400" 
d="M194 -182q-51 0 -85 21t-34 57q0 63 88 104h108q-38 -32 -38 -59q0 -26 30 -26q16 0 25 4v-84q-34 -17 -94 -17z" />
    <glyph glyph-name="tilde" unicode="&#x2dc;" horiz-adv-x="400" 
d="M266 581q-33 0 -70 16t-48 16q-12 0 -20 -8.5t-10 -21.5h-104q4 80 36 121t82 41q30 0 68.5 -16t52.5 -16q25 0 30 31h104q-5 -80 -38.5 -121.5t-82.5 -41.5z" />
    <glyph glyph-name="hungarumlaut" unicode="&#x2dd;" horiz-adv-x="400" 
d="M47 578l44 169h148l-78 -169h-114zM228 578l44 169h148l-77 -169h-115z" />
    <glyph glyph-name="Wgrave" unicode="&#x1e80;" horiz-adv-x="1009" 
d="M440 757l-100 149h202l47 -149h-149zM176 0l-166 715h229l82 -427l86 427h197l97 -432l87 432h210l-166 -715h-229l-100 427l-101 -427h-226z" />
    <glyph glyph-name="wgrave" unicode="&#x1e81;" horiz-adv-x="854" 
d="M162 0l-157 523h205l68 -293l80 293h158l70 -293l79 293h184l-166 -523h-185l-73 273l-72 -273h-191zM369 578l-104 169h193l52 -169h-141z" />
    <glyph glyph-name="Wacute" unicode="&#x1e82;" horiz-adv-x="1009" 
d="M427 757l51 149h201l-103 -149h-149zM176 0l-166 715h229l82 -427l86 427h197l97 -432l87 432h210l-166 -715h-229l-100 427l-101 -427h-226z" />
    <glyph glyph-name="wacute" unicode="&#x1e83;" horiz-adv-x="854" 
d="M367 578l52 169h193l-104 -169h-141zM162 0l-157 523h205l68 -293l80 293h158l70 -293l79 293h184l-166 -523h-185l-73 273l-72 -273h-191z" />
    <glyph glyph-name="Wdieresis" unicode="&#x1e84;" horiz-adv-x="1009" 
d="M393 752q-38 0 -64.5 26t-26.5 63t26.5 63t64.5 26t65 -26t27 -63t-27 -63t-65 -26zM620 752q-38 0 -64.5 26t-26.5 63t26.5 63t64.5 26t65 -26t27 -63t-27 -63t-65 -26zM176 0l-166 715h229l82 -427l86 427h197l97 -432l87 432h210l-166 -715h-229l-100 427l-101 -427
h-226z" />
    <glyph glyph-name="wdieresis" unicode="&#x1e85;" horiz-adv-x="854" 
d="M327 570q-38 0 -64.5 26t-26.5 63t26.5 63t64.5 26t65 -26t27 -63t-27 -63t-65 -26zM544 570q-38 0 -64 26t-26 63t26 63t64 26q39 0 65.5 -26t26.5 -63t-26.5 -63t-65.5 -26zM162 0l-157 523h205l68 -293l80 293h158l70 -293l79 293h184l-166 -523h-185l-73 273
l-72 -273h-191z" />
    <glyph glyph-name="Ygrave" unicode="&#x1ef2;" horiz-adv-x="692" 
d="M237 0v305l-232 410h246l109 -224l110 224h217l-222 -409v-306h-228zM288 757l-100 149h202l47 -149h-149z" />
    <glyph glyph-name="ygrave" unicode="&#x1ef3;" 
d="M129 -174l85 226l-209 471h213l99 -261l92 261h186l-279 -697h-187zM245 578l-104 169h193l52 -169h-141z" />
    <glyph glyph-name="uni2009" unicode="&#x2009;" horiz-adv-x="83" 
 />
    <glyph glyph-name="endash" unicode="&#x2013;" horiz-adv-x="543" 
d="M46 239v112h451v-112h-451z" />
    <glyph glyph-name="emdash" unicode="&#x2014;" horiz-adv-x="958" 
d="M46 239v112h866v-112h-866z" />
    <glyph glyph-name="quoteleft" unicode="&#x2018;" horiz-adv-x="321" 
d="M201 417l-173 56l141 255l110 -40z" />
    <glyph glyph-name="quoteright" unicode="&#x2019;" horiz-adv-x="321" 
d="M151 417l-109 42l78 269l171 -55z" />
    <glyph glyph-name="quotesinglbase" unicode="&#x201a;" horiz-adv-x="319" 
d="M147 -105l-109 42l78 270l172 -56z" />
    <glyph glyph-name="quotedblleft" unicode="&#x201c;" horiz-adv-x="555" 
d="M201 417l-173 56l141 255l110 -40zM436 417l-171 56l140 255l109 -40z" />
    <glyph glyph-name="quotedblright" unicode="&#x201d;" horiz-adv-x="555" 
d="M151 417l-109 42l78 269l171 -55zM387 417l-110 42l78 269l173 -55z" />
    <glyph glyph-name="quotedblbase" unicode="&#x201e;" horiz-adv-x="555" 
d="M147 -105l-109 42l78 270l172 -56zM383 -105l-110 42l78 270l173 -56z" />
    <glyph glyph-name="dagger" unicode="&#x2020;" horiz-adv-x="411" 
d="M127 213v251h-105v136h105v115h157v-115h105v-136h-105v-251h-157z" />
    <glyph glyph-name="daggerdbl" unicode="&#x2021;" horiz-adv-x="411" 
d="M127 431v66h-105v123h105v95h157v-95h105v-123h-105v-66h105v-123h-105v-95h-157v95h-105v123h105z" />
    <glyph glyph-name="bullet" unicode="&#x2022;" horiz-adv-x="379" 
d="M189 150q-64 0 -107.5 44.5t-43.5 107.5t43.5 107.5t107.5 44.5q65 0 108.5 -44t43.5 -108t-43.5 -108t-108.5 -44z" />
    <glyph glyph-name="ellipsis" unicode="&#x2026;" horiz-adv-x="909" 
d="M150 -12q-47 0 -78.5 31t-31.5 77q0 45 31.5 76t78.5 31q48 0 80 -31t32 -76q0 -46 -32 -77t-80 -31zM453 -12q-47 0 -78 31t-31 77q0 45 31 76t78 31q48 0 80 -31t32 -76q0 -46 -32 -77t-80 -31zM756 -12q-47 0 -78 31t-31 77q0 45 31 76t78 31q48 0 80.5 -31t32.5 -76
q0 -46 -32 -77t-81 -31z" />
    <glyph glyph-name="perthousand" unicode="&#x2030;" horiz-adv-x="1240" 
d="M216 475q52 0 52 71q0 32 -13.5 50.5t-38.5 18.5q-24 0 -38 -18.5t-14 -50.5q0 -34 14 -52.5t38 -18.5zM216 363q-90 0 -141.5 51t-51.5 131q0 77 55 127.5t138 50.5q84 0 138.5 -49t54.5 -125q0 -81 -52.5 -133.5t-140.5 -52.5zM113 0l507 715h102l-508 -715h-101z
M613 99q25 0 38.5 19t13.5 52q0 69 -52 69q-24 0 -38 -18.5t-14 -50.5q0 -34 14 -52.5t38 -18.5zM613 -13q-90 0 -141.5 51t-51.5 131q0 77 55 128t138 51q84 0 138.5 -49t54.5 -126q0 -80 -52.5 -133t-140.5 -53zM1024 99q25 0 38.5 19t13.5 52q0 69 -52 69
q-25 0 -38.5 -18.5t-13.5 -50.5q0 -71 52 -71zM1023 -13q-90 0 -141 51t-51 131q0 77 55 128t138 51t138 -49t55 -126q0 -80 -52.5 -133t-141.5 -53z" />
    <glyph glyph-name="uni2032" unicode="&#x2032;" horiz-adv-x="256" 
d="M33 434l19 281h183l-63 -281h-139z" />
    <glyph glyph-name="uni2033" unicode="&#x2033;" horiz-adv-x="478" 
d="M33 434l19 281h183l-63 -281h-139zM254 434l20 281h183l-64 -281h-139z" />
    <glyph glyph-name="guilsinglleft" unicode="&#x2039;" horiz-adv-x="304" 
d="M149 67l-124 194l124 194h129l-119 -194l119 -194h-129z" />
    <glyph glyph-name="guilsinglright" unicode="&#x203a;" horiz-adv-x="304" 
d="M26 67l119 194l-119 194h129l124 -194l-124 -194h-129z" />
    <glyph glyph-name="fraction" unicode="&#x2044;" horiz-adv-x="178" 
d="M-246 0l570 715h99l-569 -715h-100z" />
    <glyph glyph-name="Euro" unicode="&#x20ac;" horiz-adv-x="728" 
d="M21 378v74h61q21 123 106 198.5t213 75.5q135 0 211 -67t88 -198h-209q-11 94 -92 94t-97 -103h139l-13 -74h-131v-46h123l-12 -74h-107q17 -97 99 -97q46 0 68.5 26t28.5 81h208q-33 -281 -311 -281q-135 0 -215 73.5t-97 197.5h-61v74h56v46h-56z" />
    <glyph glyph-name="trademark" unicode="&#x2122;" horiz-adv-x="768" 
d="M341 394v321h137l54 -146l55 146h139v-321h-117v170l-66 -170h-37l-65 170v-170h-100zM109 394v229h-81v92h277v-92h-80v-229h-116z" />
    <glyph glyph-name="onethird" unicode="&#x2153;" horiz-adv-x="829" 
d="M633 -7q-169 0 -176 137h127q3 -38 40 -38q34 0 34 30t-41 30h-31v79h31q43 0 43 31q0 27 -31 27q-32 0 -38 -36h-126q5 61 47.5 97.5t120.5 36.5q77 0 119.5 -27.5t42.5 -78.5q0 -65 -69 -82q34 -5 55.5 -27.5t21.5 -54.5q0 -57 -43 -90.5t-127 -33.5zM105 333v243
l-83 -45v116l104 68h124v-382h-145zM60 0l570 715h99l-569 -715h-100z" />
    <glyph glyph-name="twothirds" unicode="&#x2154;" horiz-adv-x="879" 
d="M683 -7q-169 0 -176 137h127q3 -38 40 -38q34 0 34 30t-41 30h-31v79h31q43 0 43 31q0 27 -31 27q-32 0 -38 -36h-126q5 61 47.5 97.5t120.5 36.5q77 0 119.5 -27.5t42.5 -78.5q0 -65 -69 -82q34 -5 55.5 -27.5t21.5 -54.5q0 -57 -43 -90.5t-127 -33.5zM7 333v18l129 132
q37 38 53.5 60.5t16.5 42.5q0 30 -28 30q-30 0 -36 -51h-131q2 76 48.5 116t126.5 40t120.5 -34.5t40.5 -89.5q0 -37 -19.5 -67.5t-58.5 -67.5l-28 -26h108v-103h-342zM125 0l570 715h99l-569 -715h-100z" />
    <glyph glyph-name="oneeighth" unicode="&#x215b;" horiz-adv-x="824" 
d="M625 -7q-179 0 -179 114q0 69 70 92q-53 21 -53 78q0 52 46 81t117 29q73 0 117.5 -28.5t44.5 -81.5q0 -56 -53 -77q68 -21 68 -89q0 -56 -46 -87t-132 -31zM625 88q17 0 27.5 9.5t10.5 25.5t-10.5 25.5t-27.5 9.5t-27.5 -9.5t-10.5 -25.5t10.5 -25.5t27.5 -9.5zM626 231
q14 0 24 9t10 23q0 15 -10 24t-24 9t-24.5 -9.5t-10.5 -23.5t10.5 -23t24.5 -9zM105 333v243l-83 -45v116l104 68h124v-382h-145zM50 0l570 715h99l-569 -715h-100z" />
    <glyph glyph-name="threeeighths" unicode="&#x215c;" horiz-adv-x="866" 
d="M666 -7q-179 0 -179 114q0 69 70 92q-53 21 -53 78q0 52 46 81t117 29q73 0 117.5 -28.5t44.5 -81.5q0 -56 -53 -77q68 -21 68 -89q0 -56 -46 -87t-132 -31zM666 88q17 0 27.5 9.5t10.5 25.5t-10.5 25.5t-27.5 9.5t-27.5 -9.5t-10.5 -25.5t10.5 -25.5t27.5 -9.5zM667 231
q14 0 24 9t10 23q0 15 -10 24t-24 9t-24.5 -9.5t-10.5 -23.5t10.5 -23t24.5 -9zM102 0l570 715h99l-569 -715h-100zM196 326q-169 0 -176 137h127q4 -38 40 -38q34 0 34 31q0 29 -41 29h-31v79h31q43 0 43 31q0 27 -31 27q-32 0 -38 -35h-126q5 61 47.5 97.5t120.5 36.5
q77 0 119.5 -28t42.5 -79q0 -65 -69 -82q34 -5 55.5 -27.5t21.5 -54.5q0 -57 -43 -90.5t-127 -33.5z" />
    <glyph glyph-name="fiveeighths" unicode="&#x215d;" horiz-adv-x="850" 
d="M651 -7q-179 0 -179 114q0 69 70 92q-53 21 -53 78q0 52 46 81t117 29q73 0 117.5 -28.5t44.5 -81.5q0 -56 -53 -77q68 -21 68 -89q0 -56 -46 -87t-132 -31zM651 88q17 0 27.5 9.5t10.5 25.5t-10.5 25.5t-27.5 9.5t-27.5 -9.5t-10.5 -25.5t10.5 -25.5t27.5 -9.5zM652 231
q14 0 24 9t10 23q0 15 -10 24t-24 9t-24.5 -9.5t-10.5 -23.5t10.5 -23t24.5 -9zM189 326q-83 0 -124.5 35.5t-42.5 94.5h131q3 -26 32 -26q15 0 23.5 10t8.5 27q0 35 -35 35q-27 0 -35 -23h-114l12 236h293v-100h-194l-4 -78q33 51 103 51q54 0 86 -30.5t32 -87.5
q0 -67 -45 -105.5t-127 -38.5zM87 0l570 715h99l-569 -715h-100z" />
    <glyph glyph-name="seveneighths" unicode="&#x215e;" horiz-adv-x="819" 
d="M620 -7q-179 0 -179 114q0 69 70 92q-53 21 -53 78q0 52 46 81t117 29q73 0 117.5 -28.5t44.5 -81.5q0 -56 -53 -77q68 -21 68 -89q0 -56 -46 -87t-132 -31zM620 88q17 0 27.5 9.5t10.5 25.5t-10.5 25.5t-27.5 9.5t-27.5 -9.5t-10.5 -25.5t10.5 -25.5t27.5 -9.5zM621 231
q14 0 24 9t10 23q0 15 -10 24t-24 9t-24.5 -9.5t-10.5 -23.5t10.5 -23t24.5 -9zM67 333l102 269h-147v113h328v-14l-139 -368h-144zM36 0l570 715h99l-569 -715h-100z" />
    <glyph glyph-name="minus" unicode="&#x2212;" horiz-adv-x="582" 
d="M38 265v149h507v-149h-507z" />
    <glyph glyph-name="approxequal" unicode="&#x2248;" horiz-adv-x="593" 
d="M36 113q6 96 46.5 142t99.5 46q45 0 122 -19.5t97 -19.5q40 0 45 44h111q-3 -91 -44.5 -140t-99.5 -49q-46 0 -123.5 20t-97.5 20q-38 0 -45 -44h-111zM36 341q6 96 46.5 142t99.5 46q45 0 122 -19t97 -19q40 0 45 42h111q-3 -90 -44 -138.5t-100 -48.5
q-46 0 -123.5 19.5t-97.5 19.5q-38 0 -45 -44h-111z" />
    <glyph glyph-name="notequal" unicode="&#x2260;" horiz-adv-x="570" 
d="M38 361v131h250l37 96h122l-37 -96h121v-131h-172l-26 -68h198v-131h-248l-37 -96h-123l37 96h-122v131h172l27 68h-199z" />
    <glyph glyph-name="lessequal" unicode="&#x2264;" horiz-adv-x="514" 
d="M468 147l-428 229v37l428 229v-174l-149 -72l149 -73v-176zM40 0v126h428v-126h-428z" />
    <glyph glyph-name="greaterequal" unicode="&#x2265;" horiz-adv-x="514" 
d="M46 147v176l149 73l-149 72v174l428 -229v-37zM46 0v126h428v-126h-428z" />
    <glyph glyph-name="uni24C5" unicode="&#x24c5;" horiz-adv-x="842" 
d="M274 157v405h165q169 0 169 -140v-2q0 -65 -40.5 -99.5t-120.5 -34.5h-38v-129h-135zM409 376h22q50 0 50 44v2q0 39 -49 39h-23v-85zM420 31q136 0 229.5 92t93.5 236q0 143 -92 234t-229 91q-138 0 -230.5 -91.5t-92.5 -235.5t93.5 -235t227.5 -91zM420 -21
q-161 0 -273.5 109t-112.5 269q0 159 112.5 269t275.5 110q164 0 275.5 -109t111.5 -268q0 -161 -113 -270.5t-276 -109.5z" />
    <glyph glyph-name="f_i" unicode="&#xfb01;" horiz-adv-x="689" 
d="M439 0v523h196v-523h-196zM537 562q-46 0 -76.5 28t-30.5 71t30.5 71.5t76.5 28.5q45 0 75.5 -28.5t30.5 -71.5t-30.5 -71t-75.5 -28zM75 0v391h-64v132h64v39q0 98 57.5 147t157.5 49q43 0 83 -10v-142q-20 6 -45 6q-28 0 -42 -14t-14 -37v-38h101v-132h-101v-391h-197z
" />
    <glyph glyph-name="f_l" unicode="&#xfb02;" horiz-adv-x="687" 
d="M75 0v391h-64v132h64v39q0 98 57.5 147t157.5 49q43 0 83 -10v-142q-20 6 -45 6q-28 0 -42 -14t-14 -37v-38h101v-132h-101v-391h-197zM438 0v750h196v-750h-196z" />
    <glyph glyph-name="space_uni0326" horiz-adv-x="400" 
d="M200 -233l-110 27l39 175l172 -12z" />
    <glyph glyph-name="caron.alt" horiz-adv-x="400" 
d="M145 575l8 175h140l-50 -175h-98z" />
    <glyph glyph-name="space_uni0326.alt" horiz-adv-x="400" 
d="M283 565l-172 12l101 190l110 -27z" />
    <glyph glyph-name="grave.uc" horiz-adv-x="400" 
d="M136 757l-100 149h202l47 -149h-149z" />
    <glyph glyph-name="dieresis.uc" horiz-adv-x="400" 
d="M86 752q-38 0 -64.5 26t-26.5 63t26.5 63t64.5 26t65 -26t27 -63t-27 -63t-65 -26zM313 752q-38 0 -64.5 26t-26.5 63t26.5 63t64.5 26t65 -26t27 -63t-27 -63t-65 -26z" />
    <glyph glyph-name="macron.uc" horiz-adv-x="400" 
d="M33 769v115h333v-115h-333z" />
    <glyph glyph-name="acute.uc" horiz-adv-x="400" 
d="M115 757l51 149h201l-103 -149h-149z" />
    <glyph glyph-name="circumflex.uc" horiz-adv-x="400" 
d="M5 757l115 149h164l110 -149h-142l-54 47l-54 -47h-139z" />
    <glyph glyph-name="caron.uc" horiz-adv-x="400" 
d="M114 757l-110 149h142l54 -47l54 47h139l-115 -149h-164z" />
    <glyph glyph-name="breve.uc" horiz-adv-x="400" 
d="M200 749q-78 0 -122 41t-49 116h124q3 -42 47 -42q19 0 32 11.5t15 30.5h124q-5 -74 -50.5 -115.5t-120.5 -41.5z" />
    <glyph glyph-name="dotaccent.uc" horiz-adv-x="400" 
d="M200 752q-44 0 -73.5 27t-29.5 68t29.5 68.5t73.5 27.5t73 -27.5t29 -68.5t-29.5 -68t-72.5 -27z" />
    <glyph glyph-name="ring.uc" horiz-adv-x="400" 
d="M200 810q20 0 32.5 14t12.5 36t-12.5 35.5t-32.5 13.5t-32.5 -13.5t-12.5 -35.5t12.5 -36t32.5 -14zM200 742q-50 0 -86 34.5t-36 83.5t36 83.5t86 34.5t86 -34.5t36 -83.5t-36 -83.5t-86 -34.5z" />
    <glyph glyph-name="tilde.uc" horiz-adv-x="400" 
d="M266 755q-32 0 -70.5 16t-50.5 16q-25 0 -30 -30h-109q5 79 40 119.5t86 40.5q30 0 70 -16t54 -16q24 0 29 30h110q-6 -79 -42.5 -119.5t-86.5 -40.5z" />
    <glyph glyph-name="hungarumlaut.uc" horiz-adv-x="400" 
d="M29 757l42 149h163l-75 -149h-130zM231 757l41 149h164l-75 -149h-130z" />
    <glyph glyph-name="idotaccent" horiz-adv-x="303" 
d="M151 562q-46 0 -76.5 28t-30.5 71t30.5 71.5t76.5 28.5q45 0 75.5 -28.5t30.5 -71.5t-30.5 -71t-75.5 -28zM53 0v523h196v-523h-196z" />
    <glyph glyph-name="registered.alt" horiz-adv-x="842" 
d="M256 158v405h168q172 0 172 -133v-2q0 -73 -66 -106l89 -164h-138l-72 136h-20v-136h-133zM389 380h27q49 0 49 41v3q0 38 -48 38h-28v-82zM420 31q136 0 229.5 92t93.5 236q0 143 -92 234t-229 91q-138 0 -230.5 -91.5t-92.5 -235.5t93.5 -235t227.5 -91zM420 -21
q-161 0 -273.5 109t-112.5 269q0 159 112.5 269t275.5 110q164 0 275.5 -109t111.5 -268q0 -161 -113 -270.5t-276 -109.5z" />
    <glyph glyph-name="dollar.old" horiz-adv-x="639" 
d="M279 -131v121q-123 9 -188.5 69.5t-70.5 160.5h194q5 -67 65 -82v126q-132 18 -189 69t-57 152q0 91 66 150t180 67v87h81v-88q225 -19 242 -213h-190q-6 52 -52 65v-118q123 -17 186.5 -64.5t63.5 -147.5q0 -97 -62.5 -160.5t-187.5 -72.5v-121h-81zM417 197
q0 21 -12.5 33t-44.5 20v-114q57 13 57 61zM221 501q0 -23 13 -35.5t45 -19.5v110q-58 -10 -58 -55z" />
    <glyph glyph-name="Euro.old" horiz-adv-x="706" 
d="M20 367v71h60q19 119 102 192.5t207 73.5q131 0 205 -65t84 -192h-201q-12 92 -90 92q-77 0 -95 -101h137l-14 -71h-127v-45h120l-12 -71h-104q16 -95 96 -95q45 0 67 25t27 79h201q-30 -273 -301 -273q-131 0 -208.5 71.5t-94.5 192.5h-59v71h55v45h-55z" />
    <glyph glyph-name="sterling.old" horiz-adv-x="657" 
d="M31 277v120h46q-10 40 -10 80q0 107 77.5 166.5t199.5 59.5q137 0 204 -64t72 -179h-200q-5 42 -21.5 60.5t-47.5 18.5t-49 -20t-18 -55q0 -29 5 -67h165v-120h-148q2 -30 2 -45q0 -27 -8 -54q62 -17 76 -17q53 0 56 53h199q-4 -100 -59 -161.5t-152 -61.5
q-57 0 -121.5 24.5t-80.5 24.5q-39 0 -44 -40h-161q5 61 30 108.5t70 69.5q8 24 8 54q0 22 -6 45h-84z" />
    <glyph glyph-name="yen.old" horiz-adv-x="639" 
d="M58 288v71h130l-180 335h237l88 -210l89 210h210l-173 -335h132v-71h-156v-46h156v-71h-156v-171h-221v171h-156v71h156v46h-156z" />
    <glyph glyph-name="zero.old" horiz-adv-x="680" 
d="M341 147q101 0 101 154v19q0 153 -102 153t-102 -151v-21q0 -154 103 -154zM337 -13q-141 0 -226.5 82t-85.5 229v21q0 145 88.5 229t226.5 84t226 -80.5t88 -227.5v-20q0 -148 -87.5 -232.5t-229.5 -84.5z" />
    <glyph glyph-name="one.old" horiz-adv-x="444" 
d="M159 0v412l-127 -76v175l157 108h180v-619h-210z" />
    <glyph glyph-name="two.old" horiz-adv-x="594" 
d="M9 0v29l222 214q63 60 91 97.5t28 73.5q0 27 -15.5 43t-46.5 16q-68 0 -79 -95h-189q5 119 79.5 186.5t202.5 67.5q122 0 190 -55t68 -145q0 -59 -32.5 -109t-98.5 -111l-66 -61h203v-151h-557z" />
    <glyph glyph-name="three.old" horiz-adv-x="625" 
d="M318 -104q-286 0 -299 248h192q8 -93 95 -93q41 0 62.5 21t21.5 57q0 76 -92 76h-59v130h55q92 0 92 75q0 33 -18.5 51t-51.5 18q-77 0 -90 -87h-190q7 108 79.5 174t207.5 66q122 0 191.5 -53t69.5 -143q0 -115 -119 -156q135 -35 135 -165q0 -98 -72.5 -158.5
t-209.5 -60.5z" />
    <glyph glyph-name="four.old" horiz-adv-x="679" 
d="M360 -92v130h-349v70l296 511h262v-443h91v-138h-91v-130h-209zM211 176h154v284z" />
    <glyph glyph-name="five.old" horiz-adv-x="620" 
d="M304 -104q-136 0 -209 65t-75 170h196q9 -78 86 -78q39 0 61.5 27.5t22.5 66.5q0 42 -26 66.5t-70 24.5q-70 0 -109 -50h-133l17 431h487v-162h-333l-6 -155q56 78 171 78q96 0 153.5 -60.5t57.5 -170.5q0 -117 -76.5 -185t-214.5 -68z" />
    <glyph glyph-name="six.old" horiz-adv-x="658" 
d="M340 -12q-160 0 -235.5 91.5t-75.5 252.5v35q0 167 89 263t231 96q122 0 191 -55t79 -161h-199q-10 57 -70 57q-102 0 -108 -195q53 84 160 84q100 0 165.5 -57.5t65.5 -165.5q0 -111 -78.5 -178t-214.5 -67zM340 140q39 0 62.5 26t23.5 66t-23 65.5t-63 25.5t-64 -26
t-24 -66q0 -39 24 -65t64 -26z" />
    <glyph glyph-name="seven.old" horiz-adv-x="580" 
d="M93 -92l204 537h-277v174h553v-23l-255 -688h-225z" />
    <glyph glyph-name="eight.old" horiz-adv-x="646" 
d="M323 -13q-140 0 -219.5 56t-79.5 158q0 59 35.5 104.5t99.5 68.5q-105 48 -105 148q0 95 77.5 149.5t193.5 54.5q119 0 194.5 -53.5t75.5 -149.5q0 -101 -105 -148q63 -22 97.5 -66t34.5 -102q0 -103 -79.5 -161.5t-219.5 -58.5zM324 139q40 0 64 23t24 60q0 38 -24 61
t-64 23t-64.5 -22.5t-24.5 -60.5q0 -39 24.5 -61.5t64.5 -22.5zM325 432q33 0 55 20.5t22 53.5t-22 53.5t-55 20.5q-32 0 -54.5 -20.5t-22.5 -53.5t22.5 -53.5t54.5 -20.5z" />
    <glyph glyph-name="nine.old" horiz-adv-x="658" 
d="M309 -106q-124 0 -195.5 58t-81.5 164h199q5 -27 24.5 -45t53.5 -18q56 0 80 43t27 152q-55 -84 -160 -84q-99 0 -165 56.5t-66 161.5q0 114 78.5 182t214.5 68q310 0 310 -352v-31q0 -166 -83 -260.5t-236 -94.5zM318 297q40 0 64 26t24 65q0 40 -24 66t-64 26
q-39 0 -62.5 -26t-23.5 -66t23 -65.5t63 -25.5z" />
    <glyph glyph-name="dollar.tab" 
d="M264 -135v125q-119 8 -182.5 70t-67.5 167h186q5 -70 64 -85v128q-127 19 -182.5 72t-55.5 158q0 95 63.5 155.5t174.5 68.5v89h77v-90q218 -19 231 -220h-182q-6 53 -49 67v-122q116 -17 178.5 -67t62.5 -153q0 -99 -60 -164t-181 -74v-125h-77zM207 517q0 -24 12.5 -37
t44.5 -20v113q-57 -11 -57 -56zM395 204q0 21 -12 33.5t-42 19.5v-116q54 13 54 63z" />
    <glyph glyph-name="Euro.tab" 
d="M11 380v74h46q5 128 78.5 200t187.5 72q240 0 247 -246h-181q-2 45 -17 63.5t-48 18.5q-36 0 -53.5 -25.5t-18.5 -82.5h131l-13 -74h-118v-47h110l-12 -73h-98q2 -58 18.5 -83t54.5 -25q35 0 52 20.5t18 69.5h178q-4 -255 -257 -255q-117 0 -186 71t-73 202h-46v73h46v47
h-46z" />
    <glyph glyph-name="sterling.tab" 
d="M27 290v115h42q-10 43 -10 87q0 113 72 173t185 60q128 0 189 -61t64 -185h-180q-4 43 -19 60t-45 17q-65 0 -65 -77q0 -32 5 -74h153v-115h-137q3 -26 3 -51q0 -24 -9 -55q54 -16 70 -16q52 0 56 52h182q-3 -107 -54 -168t-142 -61q-52 0 -108.5 25t-71.5 25
q-38 0 -41 -41h-154q9 133 87 180q8 26 8 59q0 25 -6 51h-74z" />
    <glyph glyph-name="yen.tab" 
d="M48 297v73h135l-168 345h224l75 -193l75 193h196l-167 -345h144v-73h-151v-47h151v-74h-151v-176h-219v176h-144v74h144v47h-144z" />
    <glyph glyph-name="zero.tab" 
d="M303 157q37 0 50 27t13 95v157q0 67 -14.5 95t-50.5 28q-38 0 -52.5 -28t-14.5 -95v-157q0 -67 15.5 -94.5t53.5 -27.5zM296 -13q-127 0 -197 75.5t-70 216.5v156q0 139 74.5 214.5t196.5 75.5t196.5 -71.5t74.5 -213.5v-156q0 -142 -73 -219.5t-202 -77.5z" />
    <glyph glyph-name="one.tab" 
d="M242 0v493l-166 -108v188l196 142h197v-715h-227z" />
    <glyph glyph-name="two.tab" 
d="M20 0v31l212 258q63 79 89 122t26 85q0 65 -52 65q-30 0 -44 -25t-17 -87h-203q8 276 274 276q129 0 195.5 -57.5t66.5 -157.5q0 -48 -22 -96.5t-47.5 -82t-73.5 -86.5l-70 -75h211v-170h-545z" />
    <glyph glyph-name="three.tab" 
d="M306 -13q-280 0 -289 253h195q2 -46 20.5 -68.5t60.5 -22.5q72 0 72 72q0 73 -75 73h-58v137h56q78 0 78 71q0 62 -64 62q-70 0 -76 -84h-192q5 116 75 180.5t197 64.5q121 0 189 -52.5t68 -144.5q0 -119 -114 -154q58 -12 93.5 -54t35.5 -104q0 -106 -70 -167.5
t-202 -61.5z" />
    <glyph glyph-name="four.tab" 
d="M309 0v135h-294v77l245 503h247v-434h70v-146h-70v-135h-198zM189 281h124v262z" />
    <glyph glyph-name="five.tab" 
d="M294 -13q-133 0 -197.5 61.5t-68.5 183.5h190q2 -39 19 -56t56 -17q66 0 66 91q0 40 -21.5 62.5t-60.5 22.5q-64 0 -98 -49h-131l16 429h461v-163h-307l-6 -152q52 81 156 81q96 0 148.5 -61.5t52.5 -169.5q0 -123 -71.5 -193t-203.5 -70z" />
    <glyph glyph-name="six.tab" 
d="M314 -13q-144 0 -215 85t-71 239v73q0 161 81 251t216 90q237 0 244 -217h-185q-7 61 -58 61q-98 0 -99 -185q50 80 144 80q90 0 148 -56.5t58 -167.5q0 -115 -70 -184t-193 -69zM309 150q34 0 56 24t22 62q0 41 -21.5 64t-57.5 23q-35 0 -58 -22.5t-23 -61.5
q0 -41 23 -65t59 -24z" />
    <glyph glyph-name="seven.tab" 
d="M101 0l197 536h-265v179h542v-23l-248 -692h-226z" />
    <glyph glyph-name="eight.tab" 
d="M300 -13q-131 0 -204.5 56t-73.5 159q0 126 119 173q-92 46 -92 147q0 95 72 149t181 54q112 0 182 -53.5t70 -148.5q0 -102 -91 -147q115 -43 115 -169q0 -103 -74 -161.5t-204 -58.5zM301 148q36 0 57.5 21t21.5 57q0 37 -21 58.5t-57 21.5t-58 -21t-22 -58
q0 -36 22 -57.5t57 -21.5zM303 431q29 0 49.5 20t20.5 51q0 32 -20.5 51.5t-50.5 19.5q-29 0 -49.5 -19.5t-20.5 -50.5t21 -51.5t50 -20.5z" />
    <glyph glyph-name="nine.tab" 
d="M284 -12q-246 0 -256 220h186q7 -63 65 -63q52 0 73 43t22 141q-49 -79 -145 -79q-90 0 -148 55.5t-58 165.5q0 115 71 185t193 70q141 0 213 -83t72 -239v-78q0 -162 -75.5 -250t-212.5 -88zM292 393q35 0 58 22.5t23 60.5q0 41 -23 65.5t-59 24.5q-35 0 -56.5 -24
t-21.5 -62q0 -41 21.5 -64t57.5 -23z" />
    <glyph glyph-name="cent.tab" 
d="M279 -135v124q-114 9 -183.5 77.5t-69.5 188.5v8q0 117 70.5 189t182.5 84v93h74v-93q96 -8 157.5 -63t67.5 -156h-174q-8 57 -51 73v-266q55 17 61 85h167q-3 -95 -62.5 -153.5t-165.5 -66.5v-124h-74zM216 257q0 -107 63 -130v263q-63 -22 -63 -125v-8z" />
    <glyph glyph-name="percent.tab" horiz-adv-x="800" 
d="M213 488q47 0 47 67t-47 67q-22 0 -34.5 -18t-12.5 -48q0 -68 47 -68zM212 383q-84 0 -132.5 48.5t-48.5 123.5q0 72 51.5 120t130.5 48q78 0 129.5 -46.5t51.5 -118.5q0 -76 -49 -125.5t-133 -49.5zM106 0l491 715h102l-492 -715h-101zM588 92q46 0 46 67t-46 67
q-22 0 -35 -17.5t-13 -48.5q0 -32 12.5 -50t35.5 -18zM587 -13q-84 0 -132.5 48.5t-48.5 123.5q0 72 52 120.5t130 48.5t129.5 -46.5t51.5 -118.5q0 -76 -49.5 -126t-132.5 -50z" />
    <glyph glyph-name="perthousand.tab" horiz-adv-x="1000" 
d="M176 482q19 0 27 16.5t8 57.5t-8 57.5t-27 16.5q-36 0 -36 -73q0 -41 8.5 -58t27.5 -17zM175 386q-73 0 -115 46.5t-42 123.5q0 75 45 121t113 46q69 0 113.5 -44t44.5 -119q0 -79 -43 -126.5t-116 -47.5zM39 0l491 715h99l-492 -715h-98zM486 84q19 0 27.5 16.5
t8.5 57.5q0 40 -8.5 56.5t-27.5 16.5q-36 0 -36 -72q0 -41 8.5 -58t27.5 -17zM485 -13q-73 0 -115 46.5t-42 124.5q0 75 45 121t113 46q69 0 113.5 -44t44.5 -120q0 -79 -43 -126.5t-116 -47.5zM825 84q19 0 27 16.5t8 57.5t-8 57t-27 16q-36 0 -36 -72q0 -41 8.5 -58
t27.5 -17zM824 -13q-74 0 -116 46.5t-42 124.5q0 75 45 121t114 46t113 -44.5t44 -119.5q0 -79 -43 -126.5t-115 -47.5z" />
    <glyph glyph-name="plus.tab" 
d="M222 87v182h-166v142h166v181h156v-181h166v-142h-166v-182h-156z" />
    <glyph glyph-name="minus.tab" 
d="M54 265v149h492v-149h-492z" />
    <glyph glyph-name="multiply.tab" 
d="M148 83l-102 102l152 152l-155 154l103 104l154 -156l152 152l103 -102l-152 -152l155 -154l-104 -104l-154 156z" />
    <glyph glyph-name="divide.tab" 
d="M300 34q-41 0 -70.5 28.5t-29.5 69.5q0 40 29.5 68.5t70.5 28.5t70.5 -28.5t29.5 -68.5q0 -41 -29.5 -69.5t-70.5 -28.5zM47 273v134h507v-134h-507zM300 450q-41 0 -70.5 28.5t-29.5 68.5q0 41 29.5 69.5t70.5 28.5t70.5 -28.5t29.5 -69.5q0 -40 -29.5 -68.5
t-70.5 -28.5z" />
    <glyph glyph-name="equal.tab" 
d="M61 162v131h478v-131h-478zM61 361v131h478v-131h-478z" />
    <glyph glyph-name="less.tab" 
d="M527 53l-452 251v37l452 251v-178l-193 -90l193 -99v-172z" />
    <glyph glyph-name="greater.tab" 
d="M74 54v177l192 91l-192 99v172l452 -252v-36z" />
    <glyph glyph-name="florin.tab" 
d="M82 283v132h101l17 119q26 191 230 191q45 0 81 -11v-146q-21 7 -49 7q-59 0 -68 -58l-15 -102h121v-132h-139l-65 -465h-196l65 465h-83z" />
    <glyph glyph-name="plusminus.tab" 
d="M222 182v161h-174v142h174v162h156v-162h174v-142h-174v-161h-156zM48 0v126h507v-126h-507z" />
    <glyph glyph-name="notequal.tab" 
d="M54 361v131h249l37 96h123l-37 -96h120v-131h-171l-27 -68h198v-131h-248l-37 -96h-122l37 96h-122v131h172l26 68h-198z" />
    <glyph glyph-name="approxequal.tab" 
d="M43 113q6 96 46.5 142t99.5 46q45 0 119 -19.5t94 -19.5q39 0 45 44h110q-3 -91 -44.5 -140t-99.5 -49q-46 0 -120 20t-94 20q-38 0 -46 -44h-110zM43 341q6 96 46.5 142t99.5 46q44 0 118.5 -19t94.5 -19q39 0 45 42h110q-3 -90 -44 -138.5t-100 -48.5q-46 0 -120 19.5
t-94 19.5q-38 0 -46 -44h-110z" />
    <glyph glyph-name="lessequal.tab" 
d="M512 147l-429 229v37l429 229v-174l-150 -72l150 -73v-176zM83 0v126h429v-126h-429z" />
    <glyph glyph-name="greaterequal.tab" 
d="M88 147v176l150 73l-150 72v174l429 -229v-37zM88 0v126h429v-126h-429z" />
    <glyph glyph-name="parenleft.tab" horiz-adv-x="300" 
d="M176 -148q-146 212 -146 462q0 249 146 461h135q-110 -212 -110 -461q0 -250 110 -462h-135z" />
    <glyph glyph-name="parenright.tab" horiz-adv-x="300" 
d="M-11 -148q110 212 110 462q0 249 -110 461h135q146 -212 146 -461q0 -250 -146 -462h-135z" />
    <glyph glyph-name="bracketleft.tab" horiz-adv-x="300" 
d="M41 -148v924h246v-127h-71v-670h71v-127h-246z" />
    <glyph glyph-name="bracketright.tab" horiz-adv-x="300" 
d="M13 -148v127h71v670h-71v127h246v-924h-246z" />
    <glyph glyph-name="braceleft.tab" horiz-adv-x="300" 
d="M287 -148q-148 0 -202 58t-27 182l19 85q7 36 -6.5 55t-57.5 23v121q44 3 57.5 22t6.5 55l-19 84q-28 127 26 183.5t203 56.5v-127q-45 -3 -57.5 -21.5t-4.5 -64.5l17 -96q11 -59 -12.5 -94.5t-87.5 -56.5q65 -20 88 -56.5t12 -95.5l-17 -95q-9 -48 4 -68t58 -23v-127z
" />
    <glyph glyph-name="braceright.tab" horiz-adv-x="300" 
d="M13 -148v127q45 3 58 23t4 68l-17 95q-11 59 12 95.5t88 56.5q-64 21 -87.5 56.5t-12.5 94.5l17 96q8 46 -4.5 64.5t-57.5 21.5v127q149 0 203 -56.5t26 -183.5l-19 -84q-7 -36 6.5 -55t57.5 -22v-121q-44 -4 -57.5 -23t-6.5 -55l19 -85q27 -124 -27 -182t-202 -58z" />
    <glyph glyph-name="period.tab" horiz-adv-x="300" 
d="M148 -12q-47 0 -78 31t-31 77q0 45 31 76t78 31q48 0 80.5 -31t32.5 -76q0 -46 -32 -77t-81 -31z" />
    <glyph glyph-name="comma.tab" horiz-adv-x="300" 
d="M119 -122l-115 43l81 272l182 -63z" />
    <glyph glyph-name="colon.tab" horiz-adv-x="300" 
d="M148 -12q-47 0 -78 31t-31 77q0 45 31 76t78 31q48 0 80.5 -31t32.5 -76q0 -46 -32 -77t-81 -31zM148 272q-47 0 -78 31t-31 76t31 76.5t78 31.5q48 0 80.5 -31.5t32.5 -76.5t-32.5 -76t-80.5 -31z" />
    <glyph glyph-name="semicolon.tab" horiz-adv-x="300" 
d="M103 -122l-115 43l81 272l181 -63zM150 272q-47 0 -78 31t-31 76t31 76.5t78 31.5q48 0 80.5 -31.5t32.5 -76.5t-32.5 -76t-80.5 -31z" />
    <glyph glyph-name="space.tab" horiz-adv-x="300" 
 />
    <glyph glyph-name="dollar.oldtab" 
d="M265 -131v121q-117 9 -179 69t-65 161h182q5 -67 62 -82v124q-124 20 -178.5 70.5t-54.5 152.5q0 91 62.5 150t170.5 67v87h76v-88q215 -19 229 -213h-180q-7 51 -49 64v-117q115 -17 176 -65.5t61 -148.5q0 -96 -59 -159.5t-178 -71.5v-121h-76zM396 198q0 21 -12 33
t-43 19v-113q55 12 55 61zM210 501q0 -23 12 -35.5t43 -19.5v109q-55 -10 -55 -54z" />
    <glyph glyph-name="Euro.oldtab" 
d="M23 369v71h43q5 125 76 194.5t182 69.5q233 0 241 -238h-176q-3 44 -17 62t-47 18q-34 0 -51 -25t-18 -81h127l-12 -71h-115v-46h107l-12 -71h-95q2 -56 18 -80.5t52 -24.5q34 0 50.5 20t18.5 68h172q-4 -248 -248 -248q-115 0 -182 69t-71 196h-43v71h43v46h-43z" />
    <glyph glyph-name="sterling.oldtab" 
d="M26 277v120h40q-9 43 -9 79q0 109 74 168t185 59q245 0 251 -240h-186q-4 44 -16.5 60t-40.5 16q-60 0 -60 -75q0 -36 4 -67h143v-120h-129q2 -30 2 -45q0 -28 -8 -54q45 -15 64 -15q50 0 53 51h186q-4 -104 -56.5 -163.5t-141.5 -59.5q-51 0 -104 24.5t-67 24.5
q-37 0 -40 -40h-158q7 117 85 169q9 29 9 63q0 20 -5 45h-75z" />
    <glyph glyph-name="yen.oldtab" 
d="M56 303v72h131l-165 319h217l75 -184l74 184h190l-161 -319h138v-72h-146v-45h146v-72h-146v-186h-213v186h-140v72h140v45h-140z" />
    <glyph glyph-name="zero.oldtab" 
d="M302 154q37 0 52 28t15 90v78q0 63 -15.5 91t-53.5 28q-37 0 -53 -28.5t-16 -90.5v-78q0 -62 16.5 -90t54.5 -28zM296 -13q-125 0 -195.5 75t-70.5 210v78q0 132 75 207t194 75q121 0 196 -71.5t75 -206.5v-78q0 -135 -73 -212t-201 -77z" />
    <glyph glyph-name="one.oldtab" 
d="M252 0v412l-171 -109v175l200 141h181v-619h-210z" />
    <glyph glyph-name="two.oldtab" 
d="M20 0v29l222 214q56 54 81.5 93t25.5 76q0 61 -57 61q-60 0 -72 -95h-189q8 120 79.5 187t196.5 67q120 0 186 -54.5t66 -145.5q0 -60 -31.5 -110.5t-95.5 -109.5l-67 -61h199v-151h-544z" />
    <glyph glyph-name="three.oldtab" 
d="M298 -105q-140 0 -209 66t-73 183h191q5 -94 85 -94q76 0 76 78q0 77 -80 77h-56v130h54q40 0 60.5 20.5t20.5 56.5q0 30 -17 48.5t-50 18.5q-72 0 -78 -87h-189q5 107 77.5 173.5t196.5 66.5q119 0 185 -52t66 -145q0 -121 -112 -154q59 -12 94 -54t35 -105
q0 -105 -72.5 -166t-204.5 -61z" />
    <glyph glyph-name="four.oldtab" 
d="M307 -92v130h-294v69l245 512h247v-444h72v-137h-72v-130h-198zM183 175h129v276z" />
    <glyph glyph-name="five.oldtab" 
d="M294 -104q-131 0 -196.5 61.5t-67.5 173.5h186q3 -39 20.5 -58.5t56.5 -19.5q73 0 73 95q0 44 -22.5 67.5t-63.5 23.5q-64 0 -97 -51h-129l16 431h454v-160h-303l-6 -157q53 81 154 81q92 0 144.5 -60.5t52.5 -164.5q0 -123 -70.5 -192.5t-201.5 -69.5z" />
    <glyph glyph-name="six.oldtab" 
d="M315 -13q-141 0 -212 84t-71 237v78q0 160 80 250t214 90q233 0 243 -216h-183q-7 62 -60 62q-97 0 -98 -198q53 81 147 81q91 0 147 -53t56 -163q0 -114 -70.5 -183t-192.5 -69zM315 141q36 0 59 25t23 65q0 43 -23 67.5t-60 24.5q-36 0 -60 -24t-24 -65q0 -42 24 -67.5
t61 -25.5z" />
    <glyph glyph-name="seven.oldtab" 
d="M97 -92l198 537h-262v174h539v-23l-250 -688h-225z" />
    <glyph glyph-name="eight.oldtab" 
d="M300 -13q-129 0 -202 56t-73 158q0 59 32.5 105t90.5 68q-96 46 -96 148q0 95 71.5 149.5t179.5 54.5q110 0 179 -53.5t69 -149.5q0 -103 -96 -148q58 -22 89 -65.5t31 -102.5q0 -103 -73 -161.5t-202 -58.5zM301 139q36 0 58.5 22.5t22.5 59.5q0 38 -21.5 61t-59.5 23
q-36 0 -58.5 -22.5t-22.5 -60.5t22 -60.5t59 -22.5zM302 432q31 0 51.5 20.5t20.5 54.5q0 33 -20.5 53.5t-50.5 20.5t-51 -20.5t-21 -53.5t21 -54t50 -21z" />
    <glyph glyph-name="nine.oldtab" 
d="M283 -107q-118 0 -184 56.5t-70 166.5h179q9 -67 73 -67q50 0 70.5 43.5t20.5 144.5q-44 -73 -143 -73q-91 0 -149 52.5t-58 161.5q0 114 72 184t193 70q140 0 210.5 -84t70.5 -236v-80q0 -162 -74.5 -250.5t-210.5 -88.5zM289 298q36 0 60 24.5t24 65.5q0 42 -24 67.5
t-61 25.5q-36 0 -59 -25.5t-23 -65.5q0 -43 23 -67.5t60 -24.5z" />
    <glyph glyph-name="zero.num" horiz-adv-x="435" 
d="M217 435q27 0 39 21t12 66v6q0 46 -12 65.5t-40 19.5q-27 0 -38 -19.5t-11 -65.5v-7q0 -45 11.5 -65.5t38.5 -20.5zM214 326q-92 0 -142 50.5t-50 144.5v6q0 91 54.5 142.5t140.5 51.5q87 0 141.5 -48t54.5 -143v-5q0 -94 -53 -146.5t-146 -52.5z" />
    <glyph glyph-name="one.num" horiz-adv-x="297" 
d="M102 333v243l-83 -45v116l104 68h124v-382h-145z" />
    <glyph glyph-name="two.num" horiz-adv-x="366" 
d="M4 333v18l129 132q37 38 53.5 60.5t16.5 42.5q0 30 -28 30q-30 0 -36 -51h-131q2 76 48.5 116t126.5 40t120.5 -34.5t40.5 -89.5q0 -37 -19.5 -67.5t-58.5 -67.5l-28 -26h108v-103h-342z" />
    <glyph glyph-name="three.num" horiz-adv-x="385" 
d="M193 326q-169 0 -176 137h127q4 -38 40 -38q34 0 34 31q0 29 -41 29h-31v79h31q43 0 43 31q0 27 -31 27q-32 0 -38 -35h-126q5 61 47.5 97.5t120.5 36.5q77 0 119.5 -28t42.5 -79q0 -65 -69 -82q34 -5 55.5 -27.5t21.5 -54.5q0 -57 -43 -90.5t-127 -33.5z" />
    <glyph glyph-name="four.num" horiz-adv-x="408" 
d="M201 333v70h-190v54l157 258h172v-218h48v-94h-48v-70h-139zM133 497h72v124z" />
    <glyph glyph-name="five.num" horiz-adv-x="378" 
d="M186 326q-83 0 -124.5 35.5t-42.5 94.5h131q3 -26 32 -26q15 0 23.5 10t8.5 27q0 35 -35 35q-27 0 -35 -23h-114l12 236h293v-100h-194l-4 -78q33 51 103 51q54 0 86 -30.5t32 -87.5q0 -67 -45 -105.5t-127 -38.5z" />
    <glyph glyph-name="six.num" horiz-adv-x="404" 
d="M212 326q-98 0 -144 51t-46 142v11q0 87 53.5 139t137.5 52q153 0 164 -123h-131q-4 22 -29 22q-48 0 -51 -80q30 40 90 40q57 0 93 -28t36 -89q0 -62 -46 -99.5t-127 -37.5zM210 421q16 0 26.5 11.5t10.5 28.5t-10.5 28t-26.5 11q-17 0 -26.5 -11.5t-9.5 -28.5t10 -28
t26 -11z" />
    <glyph glyph-name="seven.num" horiz-adv-x="357" 
d="M64 333l102 269h-147v113h328v-14l-139 -368h-144z" />
    <glyph glyph-name="eight.num" horiz-adv-x="393" 
d="M197 326q-179 0 -179 114q0 69 70 92q-53 22 -53 78q0 52 46 81.5t117 29.5q73 0 117.5 -29t44.5 -82q0 -56 -53 -77q68 -20 68 -89q0 -56 -46 -87t-132 -31zM197 421q17 0 27.5 10t10.5 26q0 15 -11 25t-27 10q-17 0 -27.5 -10t-10.5 -26t10.5 -25.5t27.5 -9.5zM198 564
q14 0 24 9.5t10 23.5t-10 23t-24 9t-24.5 -9.5t-10.5 -23.5t10.5 -23t24.5 -9z" />
    <glyph glyph-name="nine.num" horiz-adv-x="404" 
d="M192 326q-75 0 -118 32t-48 91h132q4 -22 31 -22q46 0 48 78q-14 -19 -31.5 -28.5t-51.5 -9.5q-135 0 -135 117q0 62 46.5 99.5t126.5 37.5q94 0 142 -53t48 -140v-8q0 -93 -48.5 -143.5t-141.5 -50.5zM192 547q17 0 27 10.5t10 27.5q0 18 -10 29.5t-27 11.5
q-16 0 -26 -11.5t-10 -29.5q0 -17 9.5 -27.5t26.5 -10.5z" />
    <glyph glyph-name="zero.den" horiz-adv-x="435" 
d="M217 102q27 0 39 21t12 65v7q0 46 -12 65.5t-40 19.5q-27 0 -38 -20t-11 -66v-6q0 -45 11.5 -65.5t38.5 -20.5zM214 -7q-92 0 -142 50.5t-50 144.5v6q0 91 54.5 142t140.5 51q87 0 141.5 -48t54.5 -142v-5q0 -94 -53 -146.5t-146 -52.5z" />
    <glyph glyph-name="one.den" horiz-adv-x="297" 
d="M102 0v242l-83 -44v116l104 68h124v-382h-145z" />
    <glyph glyph-name="two.den" horiz-adv-x="366" 
d="M4 0v18l129 132q37 38 53.5 60.5t16.5 42.5q0 29 -28 29q-30 0 -36 -50h-131q2 76 48.5 115.5t126.5 39.5t120.5 -34t40.5 -89q0 -37 -20 -68t-58 -67l-28 -27h108v-102h-342z" />
    <glyph glyph-name="three.den" horiz-adv-x="385" 
d="M193 -7q-169 0 -176 137h127q3 -38 40 -38q34 0 34 30t-41 30h-31v79h31q43 0 43 31q0 27 -31 27q-32 0 -38 -36h-126q5 61 47.5 97.5t120.5 36.5q77 0 119.5 -27.5t42.5 -78.5q0 -65 -69 -82q34 -5 55.5 -27.5t21.5 -54.5q0 -57 -43 -90.5t-127 -33.5z" />
    <glyph glyph-name="four.den" horiz-adv-x="408" 
d="M201 0v70h-190v53l157 259h172v-218h48v-94h-48v-70h-139zM133 164h72v124z" />
    <glyph glyph-name="five.den" horiz-adv-x="379" 
d="M186 -7q-83 0 -124.5 35.5t-42.5 93.5h131q4 -25 32 -25q15 0 23.5 10t8.5 27q0 35 -35 35q-27 0 -35 -23h-114l12 236h293v-101h-194l-4 -78q32 52 103 52q54 0 86 -31t32 -88q0 -67 -45 -105t-127 -38z" />
    <glyph glyph-name="six.den" horiz-adv-x="404" 
d="M212 -7q-98 0 -144 51t-46 142v11q0 87 53.5 138.5t137.5 51.5q153 0 164 -123h-131q-4 22 -29 22q-48 0 -51 -80q28 40 90 40q57 0 93 -28t36 -88q0 -63 -46 -100t-127 -37zM210 88q16 0 26.5 11.5t10.5 28.5t-10.5 28t-26.5 11q-17 0 -26.5 -11.5t-9.5 -28.5t10 -28
t26 -11z" />
    <glyph glyph-name="seven.den" horiz-adv-x="357" 
d="M64 0l102 269h-147v113h328v-14l-139 -368h-144z" />
    <glyph glyph-name="eight.den" horiz-adv-x="393" 
d="M197 -7q-179 0 -179 114q0 69 70 92q-53 21 -53 78q0 52 46 81t117 29q73 0 117.5 -28.5t44.5 -81.5q0 -56 -53 -77q68 -21 68 -89q0 -56 -46 -87t-132 -31zM197 88q17 0 27.5 9.5t10.5 25.5t-10.5 25.5t-27.5 9.5t-27.5 -9.5t-10.5 -25.5t10.5 -25.5t27.5 -9.5zM198 231
q14 0 24 9t10 23q0 15 -10 24t-24 9t-24.5 -9.5t-10.5 -23.5t10.5 -23t24.5 -9z" />
    <glyph glyph-name="nine.den" horiz-adv-x="404" 
d="M192 -7q-75 0 -118 32t-48 91h132q4 -22 31 -22q46 0 48 78q-14 -19 -31.5 -28.5t-51.5 -9.5q-135 0 -135 117q0 62 46.5 99.5t126.5 37.5q94 0 142 -53t48 -140v-9q0 -92 -48.5 -142.5t-141.5 -50.5zM192 213q17 0 27 11t10 28q0 18 -10 29.5t-27 11.5q-16 0 -26 -11.5
t-10 -29.5q0 -17 9.5 -28t26.5 -11z" />
    <glyph glyph-name="zero.sub" horiz-adv-x="435" 
d="M217 -24q27 0 39 21t12 66v6q0 46 -12 65.5t-40 19.5q-27 0 -38 -19.5t-11 -65.5v-7q0 -45 11.5 -65.5t38.5 -20.5zM214 -133q-92 0 -142 50.5t-50 144.5v6q0 91 54.5 142.5t140.5 51.5q87 0 141.5 -48t54.5 -143v-5q0 -94 -53 -146.5t-146 -52.5z" />
    <glyph glyph-name="one.sub" horiz-adv-x="297" 
d="M102 -126v242l-83 -44v116l104 68h124v-382h-145z" />
    <glyph glyph-name="two.sub" horiz-adv-x="366" 
d="M4 -126v18l129 132q37 38 53.5 60.5t16.5 42.5q0 30 -28 30q-30 0 -36 -51h-131q2 76 48.5 116t126.5 40t120.5 -34.5t40.5 -89.5q0 -37 -19.5 -67.5t-58.5 -67.5l-28 -26h108v-103h-342z" />
    <glyph glyph-name="three.sub" horiz-adv-x="385" 
d="M193 -133q-169 0 -176 137h127q4 -38 40 -38q34 0 34 31q0 29 -41 29h-31v79h31q43 0 43 31q0 27 -31 27q-32 0 -38 -35h-126q5 61 47.5 97.5t120.5 36.5q77 0 119.5 -28t42.5 -79q0 -65 -69 -82q34 -5 55.5 -27.5t21.5 -54.5q0 -57 -43 -90.5t-127 -33.5z" />
    <glyph glyph-name="four.sub" horiz-adv-x="408" 
d="M201 -126v70h-190v54l157 258h172v-218h48v-94h-48v-70h-139zM133 38h72v124z" />
    <glyph glyph-name="five.sub" horiz-adv-x="379" 
d="M186 -133q-83 0 -124.5 35.5t-42.5 94.5h131q3 -26 32 -26q15 0 23.5 10t8.5 27q0 35 -35 35q-27 0 -35 -23h-114l12 236h293v-100h-194l-4 -78q33 51 103 51q54 0 86 -30.5t32 -87.5q0 -67 -45 -105.5t-127 -38.5z" />
    <glyph glyph-name="six.sub" horiz-adv-x="404" 
d="M212 -133q-98 0 -144 51t-46 142v11q0 87 53.5 139t137.5 52q153 0 164 -123h-131q-4 22 -29 22q-48 0 -51 -80q30 40 90 40q57 0 93 -28t36 -89q0 -62 -46 -99.5t-127 -37.5zM210 -38q16 0 26.5 11.5t10.5 28.5t-10.5 28t-26.5 11q-17 0 -26.5 -11.5t-9.5 -28.5t10 -28
t26 -11z" />
    <glyph glyph-name="seven.sub" horiz-adv-x="357" 
d="M64 -126l102 269h-147v113h328v-14l-139 -368h-144z" />
    <glyph glyph-name="eight.sub" horiz-adv-x="393" 
d="M197 -133q-179 0 -179 114q0 69 70 92q-53 22 -53 78q0 52 46 81.5t117 29.5q73 0 117.5 -29t44.5 -82q0 -56 -53 -77q68 -20 68 -89q0 -56 -46 -87t-132 -31zM197 -38q16 0 27 10t11 25q0 16 -10.5 26t-27.5 10t-27.5 -10t-10.5 -26t10.5 -25.5t27.5 -9.5zM198 105
q14 0 24 9.5t10 23.5t-10 23t-24 9t-24.5 -9.5t-10.5 -23.5t10.5 -23t24.5 -9z" />
    <glyph glyph-name="nine.sub" horiz-adv-x="404" 
d="M192 -133q-75 0 -118 32t-48 91h132q4 -22 31 -22q46 0 48 78q-14 -19 -31.5 -28.5t-51.5 -9.5q-135 0 -135 117q0 62 46.5 99.5t126.5 37.5q94 0 142 -53t48 -140v-8q0 -93 -48.5 -143.5t-141.5 -50.5zM192 88q17 0 27 10.5t10 27.5q0 18 -10 29.5t-27 11.5
q-16 0 -26 -11.5t-10 -29.5q0 -17 9.5 -27.5t26.5 -10.5z" />
    <glyph glyph-name="plus.sub" horiz-adv-x="361" 
d="M130 -76v98h-96v99h96v99h101v-99h96v-99h-96v-98h-101z" />
    <glyph glyph-name="minus.sub" horiz-adv-x="361" 
d="M34 22v99h293v-99h-293z" />
    <glyph glyph-name="zero.sup" horiz-adv-x="435" 
d="M217 493q27 0 39 21t12 66v6q0 46 -12 65.5t-40 19.5q-27 0 -38 -19.5t-11 -65.5v-7q0 -45 11.5 -65.5t38.5 -20.5zM214 384q-92 0 -142 50.5t-50 144.5v6q0 91 54.5 142.5t140.5 51.5q87 0 141.5 -48t54.5 -143v-5q0 -94 -53 -146.5t-146 -52.5z" />
    <glyph glyph-name="one.sup" horiz-adv-x="297" 
d="M102 391v243l-83 -45v116l104 68h124v-382h-145z" />
    <glyph glyph-name="two.sup" horiz-adv-x="366" 
d="M4 391v18l129 132q37 38 53.5 60.5t16.5 42.5q0 30 -28 30q-30 0 -36 -51h-131q2 76 48.5 116t126.5 40t120.5 -34.5t40.5 -89.5q0 -37 -19.5 -67.5t-58.5 -67.5l-28 -26h108v-103h-342z" />
    <glyph glyph-name="three.sup" horiz-adv-x="385" 
d="M193 384q-169 0 -176 137h127q4 -38 40 -38q34 0 34 31q0 29 -41 29h-31v79h31q43 0 43 31q0 27 -31 27q-32 0 -38 -35h-126q5 61 47.5 97.5t120.5 36.5q77 0 119.5 -28t42.5 -79q0 -65 -69 -82q34 -5 55.5 -27.5t21.5 -54.5q0 -57 -43 -90.5t-127 -33.5z" />
    <glyph glyph-name="four.sup" horiz-adv-x="408" 
d="M201 391v70h-190v54l157 258h172v-218h48v-94h-48v-70h-139zM133 555h72v124z" />
    <glyph glyph-name="five.sup" horiz-adv-x="379" 
d="M186 384q-83 0 -124.5 35.5t-42.5 94.5h131q3 -26 32 -26q15 0 23.5 10t8.5 27q0 35 -35 35q-27 0 -35 -23h-114l12 236h293v-100h-194l-4 -78q33 51 103 51q54 0 86 -30.5t32 -87.5q0 -67 -45 -105.5t-127 -38.5z" />
    <glyph glyph-name="six.sup" horiz-adv-x="404" 
d="M212 384q-98 0 -144 51t-46 142v11q0 87 53.5 139t137.5 52q153 0 164 -123h-131q-4 22 -29 22q-48 0 -51 -80q30 40 90 40q57 0 93 -28t36 -89q0 -62 -46 -99.5t-127 -37.5zM210 479q16 0 26.5 11.5t10.5 28.5t-10.5 28t-26.5 11q-17 0 -26.5 -11.5t-9.5 -28.5t10 -28
t26 -11z" />
    <glyph glyph-name="seven.sup" horiz-adv-x="357" 
d="M64 391l102 269h-147v113h328v-14l-139 -368h-144z" />
    <glyph glyph-name="eight.sup" horiz-adv-x="393" 
d="M197 384q-179 0 -179 114q0 69 70 92q-53 22 -53 78q0 52 46 81.5t117 29.5q73 0 117.5 -29t44.5 -82q0 -56 -53 -77q68 -20 68 -89q0 -56 -46 -87t-132 -31zM197 479q17 0 27.5 10t10.5 26q0 15 -11 25t-27 10q-17 0 -27.5 -10t-10.5 -26t10.5 -25.5t27.5 -9.5zM198 622
q14 0 24 9.5t10 23.5t-10 23t-24 9t-24.5 -9.5t-10.5 -23.5t10.5 -23t24.5 -9z" />
    <glyph glyph-name="nine.sup" horiz-adv-x="404" 
d="M192 384q-75 0 -118 32t-48 91h132q4 -22 31 -22q46 0 48 78q-14 -19 -31.5 -28.5t-51.5 -9.5q-135 0 -135 117q0 62 46.5 99.5t126.5 37.5q94 0 142 -53t48 -140v-8q0 -93 -48.5 -143.5t-141.5 -50.5zM192 605q17 0 27 10.5t10 27.5q0 18 -10 29.5t-27 11.5
q-16 0 -26 -11.5t-10 -29.5q0 -17 9.5 -27.5t26.5 -10.5z" />
    <glyph glyph-name="plus.sup" horiz-adv-x="361" 
d="M130 442v97h-96v100h96v98h101v-98h96v-100h-96v-97h-101z" />
    <glyph glyph-name="minus.sup" horiz-adv-x="361" 
d="M34 539v100h293v-100h-293z" />
    <glyph glyph-name="a.alt" horiz-adv-x="638" 
d="M239 -13q-92 0 -154 69t-62 200v8q0 130 62.5 201.5t153.5 71.5q107 0 154 -86v72h197v-523h-197v83q-47 -96 -154 -96zM310 137q42 0 65.5 31.5t23.5 91.5v8q0 123 -87 123q-89 0 -89 -124v-8q0 -122 87 -122z" />
    <glyph glyph-name="t.alt" horiz-adv-x="386" 
d="M82 0v391h-71v132h71v107h197v-107h92v-132h-92v-391h-197z" />
    <glyph glyph-name="germandbls.alt" horiz-adv-x="706" 
d="M479 -9q-105 0 -158 45t-55 128h163q3 -50 40 -50q33 0 33 36q0 7 -1.5 13t-6.5 11l-8.5 8.5t-13 8.5t-15.5 7.5t-19.5 8.5t-21.5 9q-26 12 -44 22.5t-38 27.5t-30.5 40t-10.5 50q0 32 17 63.5t37 52.5t37 44.5t17 41.5q0 58 -70 58q-40 0 -63.5 -22t-23.5 -64v-530h-197
v527q0 111 79 173t209 62q117 0 188.5 -45t71.5 -128q0 -40 -18 -74t-40 -52t-40 -36t-18 -30q0 -3 1 -5.5t3 -5.5t4.5 -5t7.5 -5.5t9.5 -6t12.5 -6.5t14.5 -7.5t18 -9.5t21.5 -11q116 -58 116 -163q0 -88 -57 -134.5t-151 -46.5z" />
    <glyph glyph-name="aacute.alt" horiz-adv-x="638" 
d="M251 578l52 169h193l-104 -169h-141zM239 -13q-92 0 -154 69t-62 200v8q0 130 62.5 201.5t153.5 71.5q107 0 154 -86v72h197v-523h-197v83q-47 -96 -154 -96zM310 137q42 0 65.5 31.5t23.5 91.5v8q0 123 -87 123q-89 0 -89 -124v-8q0 -122 87 -122z" />
    <glyph glyph-name="abreve.alt" horiz-adv-x="638" 
d="M239 -13q-92 0 -154 69t-62 200v8q0 130 62.5 201.5t153.5 71.5q107 0 154 -86v72h197v-523h-197v83q-47 -96 -154 -96zM310 137q42 0 65.5 31.5t23.5 91.5v8q0 123 -87 123q-89 0 -89 -124v-8q0 -122 87 -122zM326 581q-76 0 -120.5 42t-48.5 121h119q3 -45 50 -45
q46 0 51 45h118q-4 -78 -50 -120.5t-119 -42.5z" />
    <glyph glyph-name="acircumflex.alt" horiz-adv-x="638" 
d="M134 580l125 166h138l120 -166h-137l-56 53l-56 -53h-134zM239 -13q-92 0 -154 69t-62 200v8q0 130 62.5 201.5t153.5 71.5q107 0 154 -86v72h197v-523h-197v83q-47 -96 -154 -96zM310 137q42 0 65.5 31.5t23.5 91.5v8q0 123 -87 123q-89 0 -89 -124v-8q0 -122 87 -122z
" />
    <glyph glyph-name="adieresis.alt" horiz-adv-x="638" 
d="M217 570q-38 0 -64.5 26t-26.5 63t26.5 63t64.5 26t65 -26t27 -63t-27 -63t-65 -26zM434 570q-38 0 -64 26t-26 63t26 63t64 26q39 0 65.5 -26t26.5 -63t-26.5 -63t-65.5 -26zM239 -13q-92 0 -154 69t-62 200v8q0 130 62.5 201.5t153.5 71.5q107 0 154 -86v72h197v-523
h-197v83q-47 -96 -154 -96zM310 137q42 0 65.5 31.5t23.5 91.5v8q0 123 -87 123q-89 0 -89 -124v-8q0 -122 87 -122z" />
    <glyph glyph-name="agrave.alt" horiz-adv-x="638" 
d="M239 -13q-92 0 -154 69t-62 200v8q0 130 62.5 201.5t153.5 71.5q107 0 154 -86v72h197v-523h-197v83q-47 -96 -154 -96zM310 137q42 0 65.5 31.5t23.5 91.5v8q0 123 -87 123q-89 0 -89 -124v-8q0 -122 87 -122zM260 578l-104 169h193l52 -169h-141z" />
    <glyph glyph-name="amacron.alt" horiz-adv-x="638" 
d="M239 -13q-92 0 -154 69t-62 200v8q0 130 62.5 201.5t153.5 71.5q107 0 154 -86v72h197v-523h-197v83q-47 -96 -154 -96zM310 137q42 0 65.5 31.5t23.5 91.5v8q0 123 -87 123q-89 0 -89 -124v-8q0 -122 87 -122zM168 605v107h316v-107h-316z" />
    <glyph glyph-name="aogonek.alt" horiz-adv-x="638" 
d="M499 -182q-55 0 -87 22t-32 60q0 60 87 100h-74v83q-47 -96 -154 -96q-92 0 -154 69t-62 200v8q0 130 62.5 201.5t153.5 71.5q107 0 154 -86v72h197v-510q-53 -41 -53 -72q0 -26 30 -26q16 0 25 4v-84q-32 -17 -93 -17zM310 137q42 0 65.5 31.5t23.5 91.5v8
q0 123 -87 123q-89 0 -89 -124v-8q0 -122 87 -122z" />
    <glyph glyph-name="aring.alt" horiz-adv-x="638" 
d="M325 642q19 0 31.5 13.5t12.5 34.5q0 22 -12 35.5t-32 13.5t-32 -13.5t-12 -35.5q0 -21 12.5 -34.5t31.5 -13.5zM325 574q-50 0 -85 34t-35 82t35.5 82.5t84.5 34.5t84.5 -34.5t35.5 -82.5t-35 -82t-85 -34zM239 -13q-92 0 -154 69t-62 200v8q0 130 62.5 201.5
t153.5 71.5q107 0 154 -86v72h197v-523h-197v83q-47 -96 -154 -96zM310 137q42 0 65.5 31.5t23.5 91.5v8q0 123 -87 123q-89 0 -89 -124v-8q0 -122 87 -122z" />
    <glyph glyph-name="aringacute.alt" horiz-adv-x="638" 
d="M325 638q19 0 31.5 13.5t12.5 34.5q0 22 -12 35.5t-32 13.5t-32 -13.5t-12 -35.5q0 -21 12.5 -34.5t31.5 -13.5zM325 570q-50 0 -85 34t-35 82t35.5 82.5t84.5 34.5t84.5 -34.5t35.5 -82.5t-35 -82t-85 -34zM239 -13q-92 0 -154 69t-62 200v8q0 130 62.5 201.5
t153.5 71.5q107 0 154 -86v72h197v-523h-197v83q-47 -96 -154 -96zM310 137q42 0 65.5 31.5t23.5 91.5v8q0 123 -87 123q-89 0 -89 -124v-8q0 -122 87 -122zM255 829l51 149h201l-103 -149h-149z" />
    <glyph glyph-name="atilde.alt" horiz-adv-x="638" 
d="M239 -13q-92 0 -154 69t-62 200v8q0 130 62.5 201.5t153.5 71.5q107 0 154 -86v72h197v-523h-197v83q-47 -96 -154 -96zM310 137q42 0 65.5 31.5t23.5 91.5v8q0 123 -87 123q-89 0 -89 -124v-8q0 -122 87 -122zM392 581q-33 0 -70 16t-48 16q-12 0 -20 -8.5t-10 -21.5
h-104q4 80 36 121t82 41q30 0 68.5 -16t52.5 -16q25 0 30 31h104q-5 -80 -38.5 -121.5t-82.5 -41.5z" />
    <glyph glyph-name="tbar.alt" horiz-adv-x="386" 
d="M11 225v106h71v60h-71v132h71v107h197v-107h92v-132h-92v-60h92v-106h-92v-225h-197v225h-71z" />
    <glyph glyph-name="tcaron.alt" horiz-adv-x="386" 
d="M82 0v391h-71v132h71v107h197v-107h92v-132h-92v-391h-197zM317 575l8 175h140l-50 -175h-98z" />
    <glyph glyph-name="tcommaaccent.alt" horiz-adv-x="386" 
d="M170 -233l-110 27l39 175l172 -12zM82 0v391h-71v132h71v107h197v-107h92v-132h-92v-391h-197z" />
    <glyph glyph-name="f.short" horiz-adv-x="384" 
d="M75 0v391h-64v132h64v39q0 98 57.5 147t157.5 49q43 0 83 -10v-142q-20 6 -45 6q-28 0 -42 -14t-14 -37v-38h101v-132h-101v-391h-197z" />
    <glyph glyph-name="f_f.short" horiz-adv-x="722" 
d="M75 0v391h-64v132h64v33q0 98 57 147t156 49q41 0 83 -11v-142q-21 7 -44 7q-55 0 -55 -51v-32h141v39q0 98 57.5 147t156.5 49q44 0 84 -10v-142q-20 6 -45 6q-28 0 -42 -14t-14 -37v-38h101v-132h-101v-391h-197v391h-141v-391h-197z" />
    <glyph glyph-name="questiondown.uc" horiz-adv-x="569" 
d="M401 474v-13q0 -35 -16.5 -68.5t-33 -51.5t-46.5 -46q-22 -21 -32.5 -32t-21 -28.5t-10.5 -33.5q0 -52 52 -52q58 0 69 80h192q-3 -116 -78.5 -178t-198.5 -62q-119 0 -184.5 50t-65.5 143q0 79 68 147q13 13 37 35t38 35t27.5 31.5t17.5 34.5v9h186zM308 727
q48 0 81.5 -30.5t33.5 -74.5t-33.5 -75t-81.5 -31q-47 0 -80.5 31t-33.5 75t33.5 74.5t80.5 30.5z" />
    <glyph glyph-name="exclamdown.uc" horiz-adv-x="343" 
d="M60 0l29 474h164l29 -474h-222zM171 516q-47 0 -80.5 31t-33.5 75t33.5 74.5t80.5 30.5t80.5 -30.5t33.5 -74.5t-33.5 -75t-80.5 -31z" />
    <glyph glyph-name="hyphen.uc" horiz-adv-x="412" 
d="M49 249v154h314v-154h-314z" />
    <glyph glyph-name="endash.uc" horiz-adv-x="543" 
d="M46 274v111h451v-111h-451z" />
    <glyph glyph-name="emdash.uc" horiz-adv-x="958" 
d="M46 274v111h866v-111h-866z" />
    <glyph glyph-name="guilsinglleft.uc" horiz-adv-x="304" 
d="M149 105l-124 196l124 196h129l-119 -196l119 -196h-129z" />
    <glyph glyph-name="guilsinglright.uc" horiz-adv-x="304" 
d="M26 105l119 196l-119 196h129l124 -196l-124 -196h-129z" />
    <glyph glyph-name="guillemotleft.uc" horiz-adv-x="477" 
d="M149 105l-124 196l124 196h121l-119 -196l119 -196h-121zM330 105l-124 196l124 196h121l-119 -196l119 -196h-121z" />
    <glyph glyph-name="guillemotright.uc" horiz-adv-x="477" 
d="M26 105l119 196l-119 196h121l124 -196l-124 -196h-121zM206 105l119 196l-119 196h121l124 -196l-124 -196h-121z" />
    <glyph glyph-name="parenleft.uc" horiz-adv-x="362" 
d="M202 -98q-166 202 -166 442q0 241 166 441h150q-129 -209 -129 -441q0 -233 129 -442h-150z" />
    <glyph glyph-name="parenright.uc" horiz-adv-x="362" 
d="M10 -98q129 213 129 442q0 228 -129 441h150q166 -200 166 -441q0 -240 -166 -442h-150z" />
    <glyph glyph-name="bracketleft.uc" horiz-adv-x="419" 
d="M61 -95v879h321v-142h-122v-594h122v-143h-321z" />
    <glyph glyph-name="bracketright.uc" horiz-adv-x="419" 
d="M38 -95v143h120v594h-120v142h319v-879h-319z" />
    <glyph glyph-name="braceleft.uc" horiz-adv-x="425" 
d="M388 -96q-160 0 -228 56t-49 176l10 64q6 35 -16.5 56t-75.5 21v137q53 0 75.5 20.5t16.5 55.5l-10 63q-20 124 47.5 177.5t229.5 53.5v-142q-55 -3 -71.5 -20t-11.5 -63l9 -81q5 -50 -22 -84t-82 -47q55 -12 82 -46.5t22 -85.5l-9 -81q-5 -47 12 -65.5t71 -21.5v-143z
" />
    <glyph glyph-name="braceright.uc" horiz-adv-x="425" 
d="M37 -96v143q54 3 70.5 21.5t11.5 65.5l-8 81q-5 51 21.5 85.5t82.5 46.5q-55 13 -82 47t-22 84l8 81q5 46 -11.5 63t-70.5 20v142q162 0 229.5 -53.5t47.5 -177.5l-10 -63q-6 -35 16.5 -55.5t75.5 -20.5v-137q-53 0 -75.5 -21t-16.5 -56l10 -64q19 -120 -49.5 -176
t-227.5 -56z" />
    <glyph glyph-name="slash.uc" horiz-adv-x="440" 
d="M-9 -84l301 860h155l-301 -860h-155z" />
    <glyph glyph-name="backslash.uc" horiz-adv-x="440" 
d="M293 -84l-300 860h154l301 -860h-155z" />
    <glyph glyph-name="bar.uc" horiz-adv-x="270" 
d="M67 -84v860h136v-860h-136z" />
    <glyph glyph-name="at.uc" horiz-adv-x="922" 
d="M461 -85q-198 0 -315.5 116t-117.5 292q0 129 64 230.5t166.5 154.5t220.5 53q180 0 297 -99t117 -262q0 -139 -63.5 -207.5t-156.5 -68.5q-128 0 -152 80q-39 -81 -130 -81q-74 0 -118 50t-44 136q0 104 56 169t140 65q81 0 106 -57l7 49h159l-34 -274q-8 -64 42 -64
q45 0 76 51t31 155q0 129 -90.5 208.5t-239.5 79.5q-158 0 -262.5 -101.5t-104.5 -268.5q0 -149 90.5 -242t258.5 -93q83 0 151.5 25.5t107.5 63.5h94q-52 -73 -147 -116.5t-209 -43.5zM444 249q31 0 51 30.5t20 77.5q0 29 -14.5 45.5t-42.5 16.5q-30 0 -48.5 -28.5
t-18.5 -73.5q0 -30 13.5 -49t39.5 -19z" />
    </font>
</defs>
</svg>
