<?xml version="1.0" standalone="no"?>
<!DOCTYPE svg PUBLIC "-//W3C//DTD SVG 1.1//EN" "http://www.w3.org/Graphics/SVG/1.1/DTD/svg11.dtd" >
<svg xmlns="http://www.w3.org/2000/svg" xmlns:xlink="http://www.w3.org/1999/xlink" version="1.1">
<metadata>
Created by FontForge 20201107 at Wed Oct 14 11:53:29 2009
 By 
(c)2009 Commercial Type.
</metadata>
<defs>
<font id="Graphik-Extralight" horiz-adv-x="600" >
  <font-face 
    font-family="Graphik Extralight"
    font-weight="275"
    font-stretch="normal"
    units-per-em="1000"
    panose-1="2 11 3 3 3 2 2 6 2 3"
    ascent="818"
    descent="-182"
    x-height="523"
    cap-height="715"
    bbox="-220 -211 1055 1079"
    underline-thickness="50"
    underline-position="-200"
    unicode-range="U+0020-FB02"
  />
<missing-glyph horiz-adv-x="500" 
 />
    <glyph glyph-name="f_f" unicode="ff" horiz-adv-x="596" 
d="M107 0v494h-82v29h82v91q0 79 40 116.5t104 37.5q25 0 54 -8v-30q-24 8 -54 8q-49 0 -79 -29t-30 -93v-93h238v99q0 79 39.5 116.5t103.5 37.5q30 0 54 -8v-30q-27 9 -53 9q-49 0 -79.5 -29t-30.5 -93v-102h156v-29h-156v-494h-34v494h-238v-494h-35z" />
    <glyph glyph-name=".notdef" horiz-adv-x="500" 
 />
    <glyph glyph-name=".null" horiz-adv-x="0" 
 />
    <glyph glyph-name="nonmarkingreturn" horiz-adv-x="333" 
 />
    <glyph glyph-name="space" unicode=" " horiz-adv-x="235" 
 />
    <glyph glyph-name="exclam" unicode="!" horiz-adv-x="262" 
d="M131 -5q-12 0 -20.5 8.5t-8.5 20.5t8.5 20.5t20.5 8.5t20.5 -8.5t8.5 -20.5t-8.5 -20.5t-20.5 -8.5zM118 165l-5 550h38l-5 -550h-28z" />
    <glyph glyph-name="quotedbl" unicode="&#x22;" horiz-adv-x="261" 
d="M62 529l-5 186h37l-5 -186h-27zM172 529l-5 186h38l-6 -186h-27z" />
    <glyph glyph-name="numbersign" unicode="#" horiz-adv-x="484" 
d="M262 99l30 204h-136l-29 -204h-30l30 204h-95v30h99l25 172h-96v30h101l26 180h30l-27 -180h136l26 180h30l-27 -180h97v-30h-101l-25 -172h98v-30h-103l-29 -204h-30zM186 505l-25 -172h135l25 172h-135z" />
    <glyph glyph-name="dollar" unicode="$" horiz-adv-x="593" 
d="M280 -135v129q-110 5 -168.5 60t-69.5 143h35q24 -164 203 -174v337q-111 19 -161.5 61.5t-50.5 118.5q0 80 58.5 129.5t153.5 52.5v91h31v-92q87 -4 139.5 -48t64.5 -120h-34q-25 131 -170 138v-304q121 -18 173.5 -60t52.5 -137q0 -83 -61 -139t-165 -58v-128h-31z
M502 189q0 79 -42.5 114.5t-148.5 52.5v-333q89 2 140 48.5t51 117.5zM102 542q0 -62 40 -97t138 -53v300q-83 -3 -130.5 -42t-47.5 -108z" />
    <glyph glyph-name="percent" unicode="%" horiz-adv-x="755" 
d="M196 435q51 0 85 34.5t34 93.5q0 58 -34 93t-85 35q-50 0 -84.5 -35t-34.5 -94q0 -58 34.5 -92.5t84.5 -34.5zM196 407q-61 0 -106 43t-45 111q0 69 44.5 114t106.5 45q64 0 108 -44t44 -113q0 -70 -45 -113t-107 -43zM126 0l467 715h34l-467 -715h-34zM557 23
q51 0 85 34.5t34 93.5q0 58 -34 93t-85 35q-50 0 -84.5 -35.5t-34.5 -94.5q0 -58 34.5 -92t84.5 -34zM557 -6q-61 0 -106 43t-45 112t44.5 113.5t106.5 44.5q63 0 107.5 -44t44.5 -112q0 -70 -44.5 -113.5t-107.5 -43.5z" />
    <glyph glyph-name="ampersand" unicode="&#x26;" horiz-adv-x="649" 
d="M606 357l-116 -210l127 -147h-43l-103 119q-89 -126 -218 -126q-95 0 -150.5 53.5t-55.5 138.5q0 75 49 126t131 92q-41 49 -60 86.5t-19 79.5q0 65 44 107.5t109 42.5q64 0 103 -41t39 -101q0 -108 -166 -182l193 -223l102 185h34zM254 23q115 0 196 120l-205 239
q-162 -79 -162 -195q0 -73 45 -118.5t126 -45.5zM182 568q0 -37 18.5 -71.5t59.5 -81.5q73 35 111.5 72.5t38.5 89.5q0 50 -30 81.5t-80 31.5q-51 0 -84.5 -34t-33.5 -88z" />
    <glyph glyph-name="quotesingle" unicode="'" horiz-adv-x="151" 
d="M62 529l-5 186h37l-5 -186h-27z" />
    <glyph glyph-name="parenleft" unicode="(" horiz-adv-x="285" 
d="M221 -148q-164 195 -164 460q0 266 164 461h35q-164 -204 -164 -461q0 -256 164 -460h-35z" />
    <glyph glyph-name="parenright" unicode=")" horiz-adv-x="285" 
d="M29 -147q164 204 164 460q0 257 -164 461h35q165 -196 165 -461q0 -264 -165 -460h-35z" />
    <glyph glyph-name="asterisk" unicode="*" horiz-adv-x="415" 
d="M117 432l-26 19l96 121l-138 46l10 29l135 -52l-2 148h32l-2 -148l134 52l10 -29l-138 -46l95 -121l-26 -19l-90 123z" />
    <glyph glyph-name="plus" unicode="+" horiz-adv-x="505" 
d="M237 113v214h-200v30h200v215h31v-215h200v-30h-200v-214h-31z" />
    <glyph glyph-name="comma" unicode="," horiz-adv-x="195" 
d="M56 -113l-25 12l65 160l35 -15z" />
    <glyph glyph-name="hyphen" unicode="-" horiz-adv-x="333" 
d="M63 262v33h207v-33h-207z" />
    <glyph glyph-name="period" unicode="." horiz-adv-x="195" 
d="M98 -5q-13 0 -21 8.5t-8 20.5t8 20.5t21 8.5q12 0 20 -8.5t8 -20.5t-8 -20.5t-20 -8.5z" />
    <glyph glyph-name="slash" unicode="/" horiz-adv-x="383" 
d="M17 -148l291 924h34l-291 -924h-34z" />
    <glyph glyph-name="zero" unicode="0" horiz-adv-x="646" 
d="M324 24q113 0 172 76.5t59 223.5v73q0 137 -62 216t-172 79q-109 0 -169.5 -78t-60.5 -220v-73q0 -145 61.5 -221t171.5 -76zM324 -7q-127 0 -198 86t-71 242v73q0 155 70.5 241.5t195.5 86.5t197.5 -87t72.5 -239v-73q0 -157 -69.5 -243.5t-197.5 -86.5z" />
    <glyph glyph-name="one" unicode="1" horiz-adv-x="348" 
d="M189 0v674l-165 -113v34l174 120h27v-715h-36z" />
    <glyph glyph-name="two" unicode="2" horiz-adv-x="527" 
d="M21 0v9l289 295q62 63 89.5 116.5t27.5 111.5q0 77 -45.5 118.5t-121.5 41.5t-124.5 -45t-58.5 -132h-34q8 97 67.5 152t149.5 55t146.5 -50t56.5 -141q0 -118 -130 -248l-253 -252h397v-31h-456z" />
    <glyph glyph-name="three" unicode="3" horiz-adv-x="544" 
d="M268 -7q-104 0 -166.5 59t-66.5 144h33q7 -74 58 -123t142 -49q89 0 139 45t50 128q0 73 -43.5 117.5t-128.5 44.5h-50v31h47q76 0 113.5 42t37.5 103q0 69 -41.5 112.5t-115.5 43.5q-76 0 -124.5 -44.5t-56.5 -113.5h-32q5 81 64.5 135t148.5 54q88 0 140.5 -53
t52.5 -133q0 -58 -32.5 -101.5t-87.5 -57.5q66 -13 105.5 -60t39.5 -120q0 -95 -62 -149.5t-164 -54.5z" />
    <glyph glyph-name="four" unicode="4" horiz-adv-x="581" 
d="M405 0v167h-375v11l357 537h54v-517h99v-31h-99v-167h-36zM80 198h325v492z" />
    <glyph glyph-name="five" unicode="5" horiz-adv-x="545" 
d="M260 -7q-99 0 -158 53.5t-66 131.5h34q9 -66 57 -110t133 -44q93 0 145.5 55.5t52.5 150.5q0 89 -53 144.5t-132 55.5q-117 0 -183 -83h-14v368h382v-31h-351v-289q64 66 170 66q93 0 155.5 -63.5t62.5 -167.5q0 -109 -65 -173t-170 -64z" />
    <glyph glyph-name="six" unicode="6" horiz-adv-x="588" 
d="M304 -7q-123 0 -183.5 78.5t-60.5 207.5v73q0 190 70.5 280t192.5 90q79 0 131 -39t64 -117h-34q-22 125 -163 125q-224 0 -225 -331v-48q23 66 82.5 101.5t127.5 35.5q111 0 172.5 -63t61.5 -163q0 -102 -65 -166t-171 -64zM304 23q91 0 145.5 55t54.5 144
q0 91 -51.5 144t-149.5 53q-83 0 -142 -51t-59 -137q0 -87 51 -147.5t151 -60.5z" />
    <glyph glyph-name="seven" unicode="7" horiz-adv-x="491" 
d="M151 0l277 685h-402v30h448v-7l-285 -708h-38z" />
    <glyph glyph-name="eight" unicode="8" horiz-adv-x="568" 
d="M285 -7q-100 0 -168 54t-68 150q0 74 47.5 123.5t124.5 65.5q-62 14 -101.5 55.5t-39.5 104.5q0 79 60.5 127.5t144.5 48.5t143.5 -48.5t59.5 -125.5q0 -65 -37 -106t-99 -56q76 -16 121.5 -64t45.5 -123q0 -98 -66 -152t-168 -54zM285 24q90 0 144 45t54 131
q0 79 -56 124.5t-140 45.5q-85 0 -143.5 -46.5t-58.5 -125.5q0 -84 56.5 -129t143.5 -45zM288 400q72 0 118 38.5t46 109.5q0 63 -47.5 103.5t-119.5 40.5q-74 0 -121 -40t-47 -106q0 -69 51 -107.5t120 -38.5z" />
    <glyph glyph-name="nine" unicode="9" horiz-adv-x="586" 
d="M276 -7q-83 0 -140.5 42t-72.5 121h35q14 -64 60.5 -98t117.5 -34q108 0 162 68t54 242v63q-23 -63 -83 -97t-130 -34q-110 0 -170.5 62.5t-60.5 163.5q0 104 64.5 167t170.5 63q123 0 184 -77t61 -203v-105q0 -187 -64 -265.5t-188 -78.5zM282 295q84 0 144.5 50
t60.5 133q0 89 -51.5 151.5t-152.5 62.5q-90 0 -144.5 -55t-54.5 -144q0 -90 51 -144t147 -54z" />
    <glyph glyph-name="colon" unicode=":" horiz-adv-x="202" 
d="M101 -5q-12 0 -20.5 8.5t-8.5 20.5t8.5 20.5t20.5 8.5t20.5 -8.5t8.5 -20.5t-8.5 -20.5t-20.5 -8.5zM101 337q-12 0 -20.5 8.5t-8.5 20.5t8.5 20.5t20.5 8.5t20.5 -8.5t8.5 -20.5t-8.5 -20.5t-20.5 -8.5z" />
    <glyph glyph-name="semicolon" unicode=";" horiz-adv-x="202" 
d="M50 -113l-25 12l65 160l35 -15zM103 337q-12 0 -20 8.5t-8 20.5t8 20.5t20 8.5q13 0 21 -8.5t8 -20.5t-8 -20.5t-21 -8.5z" />
    <glyph glyph-name="less" unicode="&#x3c;" horiz-adv-x="491" 
d="M433 110l-384 207v10l384 207v-34l-332 -178l332 -178v-34z" />
    <glyph glyph-name="equal" unicode="=" horiz-adv-x="484" 
d="M40 224v30h404v-30h-404zM40 383v30h404v-30h-404z" />
    <glyph glyph-name="greater" unicode="&#x3e;" horiz-adv-x="491" 
d="M58 110v34l333 178l-333 178v34l384 -207v-10z" />
    <glyph glyph-name="question" unicode="?" horiz-adv-x="469" 
d="M193 165v62q0 37 14.5 69.5t31 51.5t53.5 56q36 36 49.5 50.5t28.5 45.5t15 65q0 58 -37 92.5t-108 34.5q-72 0 -117.5 -43.5t-50.5 -118.5h-34q5 87 60.5 139.5t142.5 52.5q86 0 132.5 -43.5t46.5 -112.5q0 -18 -2 -33t-9.5 -31t-11 -24.5t-17.5 -25t-17.5 -20.5
t-23.5 -24l-23 -23q-28 -28 -39 -40t-26 -33.5t-20.5 -42t-5.5 -45.5v-59h-32zM209 -5q-12 0 -20.5 8.5t-8.5 20.5t8.5 20.5t20.5 8.5t20.5 -8.5t8.5 -20.5t-8.5 -20.5t-20.5 -8.5z" />
    <glyph glyph-name="at" unicode="@" horiz-adv-x="905" 
d="M461 -147q-98 0 -178 34t-130.5 91t-78 130.5t-27.5 154.5q0 119 59.5 217.5t156.5 153t208 54.5q176 0 283.5 -104t107.5 -262q0 -125 -50.5 -187.5t-118.5 -62.5q-52 0 -81 28.5t-31 81.5q-19 -45 -61 -81t-97 -36q-71 0 -114.5 47t-43.5 127q0 98 57.5 165t135.5 67
q53 0 90 -31t46 -78l11 100h34l-27 -233q-8 -60 12 -94.5t70 -34.5q60 0 97.5 56.5t37.5 164.5q0 149 -96 243.5t-262 94.5q-161 0 -276 -114t-115 -281q0 -76 24.5 -144t71 -121.5t120.5 -85t165 -31.5q194 0 294 118h34q-39 -62 -126 -104.5t-202 -42.5zM427 93
q65 0 111.5 59.5t46.5 139.5q0 70 -34 110t-92 40q-64 0 -111.5 -57.5t-47.5 -145.5q0 -68 34.5 -107t92.5 -39z" />
    <glyph glyph-name="A" unicode="A" horiz-adv-x="641" 
d="M32 0l264 715h48l266 -715h-36l-85 228h-339l-84 -228h-34zM319 686l-158 -428h317z" />
    <glyph glyph-name="B" unicode="B" horiz-adv-x="592" 
d="M94 0v715h195q95 0 151.5 -45t56.5 -134v-4q0 -64 -34.5 -103.5t-96.5 -53.5q167 -26 167 -176v-4q0 -94 -57 -144.5t-157 -50.5h-225zM129 30h189q88 0 134 42.5t46 122.5v4q0 78 -52 118.5t-151 40.5h-166v-328zM129 387h162q83 0 126.5 38t43.5 108v4q0 74 -45 111
t-128 37h-159v-298z" />
    <glyph glyph-name="C" unicode="C" horiz-adv-x="723" 
d="M382 -7q-150 0 -240.5 99.5t-90.5 260.5v8q0 156 96 258.5t235 102.5q112 0 190.5 -56.5t96.5 -159.5h-36q-19 89 -83.5 137.5t-167.5 48.5q-127 0 -210.5 -92.5t-83.5 -237.5v-8q0 -150 80 -240t215 -90q102 0 172.5 53.5t89.5 147.5h33q-20 -109 -100.5 -170.5
t-195.5 -61.5z" />
    <glyph glyph-name="D" unicode="D" horiz-adv-x="680" 
d="M130 31h143q156 0 237.5 89.5t81.5 235.5v8q0 144 -81 232.5t-239 88.5h-142v-654zM94 0v715h183q168 0 260 -98t92 -253v-8q0 -157 -90.5 -256.5t-263.5 -99.5h-181z" />
    <glyph glyph-name="E" unicode="E" horiz-adv-x="566" 
d="M94 0v715h406v-30h-370v-301h301v-31h-301v-322h388v-31h-424z" />
    <glyph glyph-name="F" unicode="F" horiz-adv-x="537" 
d="M94 0v715h399v-30h-363v-304h287v-30h-287v-351h-36z" />
    <glyph glyph-name="G" unicode="G" horiz-adv-x="750" 
d="M393 -7q-157 0 -249.5 100t-92.5 260v8q0 156 97 258.5t241 102.5q108 0 186 -51.5t98 -151.5h-36q-21 87 -86.5 130t-160.5 43q-132 0 -217 -92.5t-85 -237.5v-8q0 -151 80.5 -240.5t224.5 -89.5q130 0 199.5 73t70.5 206v7h-227v31h262v-33q0 -151 -82 -233t-223 -82z
" />
    <glyph glyph-name="H" unicode="H" horiz-adv-x="709" 
d="M94 0v715h36v-339h449v339h36v-715h-36v345h-449v-345h-36z" />
    <glyph glyph-name="I" unicode="I" horiz-adv-x="234" 
d="M99 0v715h36v-715h-36z" />
    <glyph glyph-name="J" unicode="J" horiz-adv-x="389" 
d="M137 -5q-59 0 -101 20v32q48 -22 99 -22q137 0 137 148v542h36v-543q0 -90 -45.5 -133.5t-125.5 -43.5z" />
    <glyph glyph-name="K" unicode="K" horiz-adv-x="588" 
d="M515 0l-380 364l365 351h42l-363 -348l381 -367h-45zM94 0v715h36v-715h-36z" />
    <glyph glyph-name="L" unicode="L" horiz-adv-x="528" 
d="M94 0v715h36v-684h360v-31h-396z" />
    <glyph glyph-name="M" unicode="M" horiz-adv-x="849" 
d="M94 0v715h53l272 -649l277 649h53v-715h-36v672l-288 -672h-14l-283 672v-672h-34z" />
    <glyph glyph-name="N" unicode="N" horiz-adv-x="707" 
d="M94 0v715h51l433 -667v667h35v-715h-44l-440 678v-678h-35z" />
    <glyph glyph-name="O" unicode="O" horiz-adv-x="795" 
d="M400 24q133 0 220 95t87 237v8q0 139 -87.5 233.5t-221.5 94.5q-135 0 -222.5 -94.5t-87.5 -236.5v-8q0 -140 89.5 -234.5t222.5 -94.5zM400 -7q-149 0 -249 104.5t-100 255.5v8q0 152 100 256.5t247 104.5t246.5 -103.5t99.5 -254.5v-8q0 -152 -99 -257.5t-245 -105.5z
" />
    <glyph glyph-name="P" unicode="P" horiz-adv-x="559" 
d="M94 0v715h180q239 0 239 -195v-4q0 -104 -63 -152.5t-174 -48.5h-147v-315h-35zM129 345h148q200 0 200 171v4q0 165 -202 165h-146v-340z" />
    <glyph glyph-name="Q" unicode="Q" horiz-adv-x="795" 
d="M681 -42l-90 94q-84 -59 -191 -59q-149 0 -249 104.5t-100 255.5v8q0 152 100 256.5t247 104.5t246.5 -103.5t99.5 -254.5v-8q0 -86 -34 -160.5t-94 -124.5l87 -91zM400 24q96 0 169 51l-113 120l23 22l116 -123q112 96 112 262v8q0 139 -87.5 233.5t-221.5 94.5
q-135 0 -222.5 -94.5t-87.5 -236.5v-8q0 -140 89.5 -234.5t222.5 -94.5z" />
    <glyph glyph-name="R" unicode="R" horiz-adv-x="593" 
d="M94 0v715h183q111 0 175 -45t64 -142v-4q0 -166 -190 -186l232 -338h-41l-230 335h-158v-335h-35zM129 365h149q202 0 202 159v4q0 157 -202 157h-149v-320z" />
    <glyph glyph-name="S" unicode="S" horiz-adv-x="586" 
d="M299 -7q-119 0 -183.5 56t-76.5 148h35q26 -173 225 -173q92 0 145.5 46.5t53.5 118.5q0 81 -44.5 116t-158.5 52q-120 17 -173.5 60.5t-53.5 122.5q0 83 61 132.5t161 49.5q94 0 150.5 -44.5t69.5 -124.5h-34q-27 139 -186 139q-88 0 -137.5 -39t-49.5 -111
q0 -65 43.5 -100.5t153.5 -51.5q127 -19 180.5 -61t53.5 -139q0 -84 -64 -140.5t-171 -56.5z" />
    <glyph glyph-name="T" unicode="T" horiz-adv-x="558" 
d="M261 0v685h-230v30h497v-30h-231v-685h-36z" />
    <glyph glyph-name="U" unicode="U" horiz-adv-x="674" 
d="M336 -5q-120 0 -188 66.5t-68 191.5v462h36v-459q0 -114 56.5 -172t163.5 -58q114 0 167.5 59.5t53.5 183.5v446h36v-451q0 -129 -64 -199t-193 -70z" />
    <glyph glyph-name="V" unicode="V" horiz-adv-x="626" 
d="M297 0l-268 715h35l255 -678l244 678h34l-257 -715h-43z" />
    <glyph glyph-name="W" unicode="W" horiz-adv-x="915" 
d="M223 0l-191 715h36l176 -663l202 663h25l191 -665l188 665h33l-203 -715h-38l-184 648l-198 -648h-37z" />
    <glyph glyph-name="X" unicode="X" horiz-adv-x="638" 
d="M47 0l253 372l-230 343h40l213 -317l212 317h38l-231 -344l250 -371h-40l-233 345l-235 -345h-37z" />
    <glyph glyph-name="Y" unicode="Y" horiz-adv-x="565" 
d="M272 0v322l-250 393h41l228 -362l215 362h37l-235 -393v-322h-36z" />
    <glyph glyph-name="Z" unicode="Z" horiz-adv-x="582" 
d="M27 0v9l466 676h-430v30h482v-8l-464 -676h458v-31h-512z" />
    <glyph glyph-name="bracketleft" unicode="[" horiz-adv-x="331" 
d="M96 -148v924h194v-28h-159v-868h159v-28h-194z" />
    <glyph glyph-name="backslash" unicode="\" horiz-adv-x="383" 
d="M332 -148l-291 924h34l291 -924h-34z" />
    <glyph glyph-name="bracketright" unicode="]" horiz-adv-x="331" 
d="M40 -148v28h160v868h-160v28h194v-924h-194z" />
    <glyph glyph-name="asciicircum" unicode="^" horiz-adv-x="461" 
d="M47 431l167 284h33l167 -284h-36l-148 251l-147 -251h-36z" />
    <glyph glyph-name="underscore" unicode="_" horiz-adv-x="387" 
d="M-1 -146v29h389v-29h-389z" />
    <glyph glyph-name="grave" unicode="`" horiz-adv-x="400" 
d="M188 600l-84 147h41l72 -147h-29z" />
    <glyph glyph-name="a" unicode="a" horiz-adv-x="521" 
d="M225 -8q-82 0 -130.5 38.5t-48.5 108.5q0 157 235 157h130v51q0 80 -35 117t-111 37q-65 0 -108.5 -30t-53.5 -91h-34q9 74 64.5 112.5t132.5 38.5q179 0 179 -184v-347h-34v89q-25 -43 -72.5 -70t-113.5 -27zM227 21q75 0 129.5 40.5t54.5 98.5v108h-130
q-94 0 -147.5 -28t-53.5 -101q0 -57 38 -87.5t109 -30.5z" />
    <glyph glyph-name="b" unicode="b" horiz-adv-x="602" 
d="M328 -8q-80 0 -135 43.5t-78 104.5v-140h-34v773h34v-394q24 63 82 107.5t131 44.5q99 0 165.5 -73t66.5 -192v-8q0 -122 -66 -194t-166 -72zM326 22q88 0 143.5 63t55.5 172v8q0 110 -57.5 173t-142.5 63q-84 0 -147 -64t-63 -172v-8q0 -108 61 -171.5t150 -63.5z" />
    <glyph glyph-name="c" unicode="c" horiz-adv-x="547" 
d="M288 -8q-104 0 -175 74t-71 191v8q0 117 71.5 191.5t175.5 74.5q82 0 142.5 -45.5t70.5 -123.5h-34q-9 66 -59.5 102.5t-119.5 36.5q-90 0 -151 -64.5t-61 -171.5v-8q0 -106 60.5 -170.5t150.5 -64.5q73 0 124.5 41t63.5 114h32q-12 -83 -73 -134t-147 -51z" />
    <glyph glyph-name="d" unicode="d" horiz-adv-x="602" 
d="M277 -8q-102 0 -168.5 71t-66.5 193v8q0 119 70 193t173 74q78 0 128 -41t74 -103v386h34v-773h-34v140q-21 -59 -76.5 -103.5t-133.5 -44.5zM279 22q88 0 148.5 63.5t60.5 171.5v8q0 110 -56.5 173t-144.5 63q-90 0 -150 -63.5t-60 -172.5v-8q0 -109 57 -172t145 -63z
" />
    <glyph glyph-name="e" unicode="e" horiz-adv-x="545" 
d="M286 -8q-112 0 -178 73.5t-66 191.5v8q0 117 67 191.5t170 74.5q100 0 162 -66t62 -186v-15h-426q1 -115 55 -178.5t154 -63.5q69 0 116.5 31t62.5 91h34q-18 -72 -74.5 -112t-138.5 -40zM78 293h391q-3 101 -54 154.5t-136 53.5q-84 0 -139.5 -57t-61.5 -151z" />
    <glyph glyph-name="f" unicode="f" horiz-adv-x="324" 
d="M107 0v494h-82v29h82v99q0 79 40 116.5t104 37.5q30 0 54 -8v-30q-27 9 -54 9q-49 0 -79 -29t-30 -93v-102h156v-29h-156v-494h-35z" />
    <glyph glyph-name="g" unicode="g" horiz-adv-x="602" 
d="M286 -187q-106 0 -164 44.5t-69 112.5h35q11 -58 60 -92.5t137 -34.5q93 0 147.5 46.5t54.5 146.5v125q-21 -58 -76.5 -101t-133.5 -43q-101 0 -168 68t-67 183v8q0 112 70 183.5t173 71.5q78 0 128.5 -39t73.5 -100v131h34v-489q0 -111 -64 -166t-171 -55zM279 46
q88 0 148.5 61t60.5 163v7q0 104 -56.5 164t-144.5 60q-90 0 -150 -60.5t-60 -163.5v-8q0 -103 57 -163t145 -60z" />
    <glyph glyph-name="h" unicode="h" horiz-adv-x="573" 
d="M81 0v773h34v-364q19 50 72.5 86t122.5 36q88 0 137.5 -51t49.5 -157v-323h-34v324q0 177 -158 177q-75 0 -132.5 -49.5t-57.5 -134.5v-317h-34z" />
    <glyph glyph-name="i" unicode="i" horiz-adv-x="200" 
d="M83 0v523h34v-523h-34zM100 637q-11 0 -19 8t-8 19t8 18.5t19 7.5t18.5 -7.5t7.5 -18.5t-7.5 -19t-18.5 -8z" />
    <glyph glyph-name="j" unicode="j" horiz-adv-x="200" 
d="M6 -186v30q43 4 60 26t17 70v583h34v-581q0 -64 -25.5 -95t-85.5 -33zM100 637q-11 0 -19 8t-8 19t8 18.5t19 7.5t18.5 -7.5t7.5 -18.5t-7.5 -19t-18.5 -8z" />
    <glyph glyph-name="k" unicode="k" horiz-adv-x="468" 
d="M407 0l-289 277l275 246h42l-275 -245l291 -278h-44zM81 0v773h34v-773h-34z" />
    <glyph glyph-name="l" unicode="l" horiz-adv-x="201" 
d="M83 0v773h35v-773h-35z" />
    <glyph glyph-name="m" unicode="m" horiz-adv-x="900" 
d="M81 0v523h34v-111q19 50 67.5 84.5t113.5 34.5q137 0 164 -129q23 58 74.5 93.5t116.5 35.5q173 0 173 -202v-329h-34v330q0 90 -36.5 130.5t-107.5 40.5q-70 0 -123 -49t-53 -134v-318h-34v330q0 90 -36.5 130.5t-107.5 40.5t-124 -49t-53 -134v-318h-34z" />
    <glyph glyph-name="n" unicode="n" horiz-adv-x="573" 
d="M81 0v523h34v-114q19 50 72.5 86t122.5 36q88 0 137.5 -51t49.5 -157v-323h-34v324q0 177 -158 177q-75 0 -132.5 -49.5t-57.5 -134.5v-317h-34z" />
    <glyph glyph-name="o" unicode="o" horiz-adv-x="583" 
d="M292 22q91 0 152.5 64.5t61.5 171.5v8q0 107 -61.5 171t-151.5 64q-91 0 -153.5 -65t-62.5 -171v-8q0 -105 62 -170t153 -65zM291 -8q-104 0 -176.5 75.5t-72.5 189.5v8q0 115 73.5 190t177.5 75q105 0 176.5 -73.5t71.5 -190.5v-8q0 -116 -72.5 -191t-177.5 -75z" />
    <glyph glyph-name="p" unicode="p" horiz-adv-x="602" 
d="M81 -182v705h34v-144q24 63 82 107.5t131 44.5q99 0 165.5 -73t66.5 -192v-8q0 -122 -66 -194t-166 -72q-80 0 -135 43.5t-78 104.5v-322h-34zM326 22q88 0 143.5 63t55.5 172v8q0 110 -57.5 173t-142.5 63q-84 0 -147 -64t-63 -172v-8q0 -108 61 -171.5t150 -63.5z" />
    <glyph glyph-name="q" unicode="q" horiz-adv-x="602" 
d="M487 -182v322q-21 -59 -76.5 -103.5t-133.5 -44.5q-102 0 -168.5 71t-66.5 193v8q0 119 70 193t173 74q78 0 128 -41t74 -103v136h34v-705h-34zM279 22q88 0 148.5 63.5t60.5 171.5v8q0 110 -56.5 173t-144.5 63q-90 0 -150 -63.5t-60 -172.5v-8q0 -109 57 -172t145 -63z
" />
    <glyph glyph-name="r" unicode="r" horiz-adv-x="331" 
d="M81 0v523h34v-120q21 54 66.5 88.5t114.5 36.5v-31q-81 -3 -131 -53t-50 -152v-292h-34z" />
    <glyph glyph-name="s" unicode="s" horiz-adv-x="456" 
d="M235 -9q-89 0 -141 44.5t-58 118.5h33q8 -61 49.5 -97.5t116.5 -36.5q68 0 106.5 32.5t38.5 83.5q0 55 -31 78.5t-115 39.5q-98 17 -139 47t-41 95q0 60 49.5 97t121.5 37q156 0 177 -136h-33q-21 107 -145 107q-62 0 -100 -29t-38 -76q0 -50 34.5 -73.5t121.5 -38.5
q93 -17 132.5 -47t39.5 -99q0 -63 -48.5 -105t-130.5 -42z" />
    <glyph glyph-name="t" unicode="t" horiz-adv-x="328" 
d="M221 -7q-56 0 -87.5 33t-31.5 97v371h-79v29h79v119h34v-119h146v-29h-146v-369q0 -51 23 -76.5t64 -25.5q38 0 66 11v-30q-31 -11 -68 -11z" />
    <glyph glyph-name="u" unicode="u" horiz-adv-x="569" 
d="M262 -8q-186 0 -186 201v330h34v-329q0 -171 157 -171q75 0 131 48t56 133v319h34v-523h-34v112q-19 -51 -70.5 -85.5t-121.5 -34.5z" />
    <glyph glyph-name="v" unicode="v" horiz-adv-x="508" 
d="M232 0l-206 523h37l193 -490l191 490h35l-204 -523h-46z" />
    <glyph glyph-name="w" unicode="w" horiz-adv-x="765" 
d="M194 0l-164 523h36l151 -482l153 482h29l149 -482l153 482h34l-166 -523h-41l-144 466l-149 -466h-41z" />
    <glyph glyph-name="x" unicode="x" horiz-adv-x="500" 
d="M30 0l198 271l-186 252h41l166 -227l163 227h39l-182 -250l201 -273h-41l-181 248l-180 -248h-38z" />
    <glyph glyph-name="y" unicode="y" horiz-adv-x="495" 
d="M142 -182l92 222l-208 483h36l190 -444l181 444h36l-292 -705h-35z" />
    <glyph glyph-name="z" unicode="z" horiz-adv-x="468" 
d="M26 0v7l359 487h-329v29h383v-7l-357 -486h350v-30h-406z" />
    <glyph glyph-name="braceleft" unicode="{" horiz-adv-x="351" 
d="M311 -145q-103 0 -147 44.5t-23 148.5l24 120q12 62 -17 98t-105 36v28q76 1 105 36.5t17 97.5l-24 121q-21 104 23 148t147 44v-28q-86 -1 -121 -36t-17 -127l24 -123q24 -119 -91 -147q116 -26 91 -147l-24 -123q-18 -92 17 -127t121 -36v-28z" />
    <glyph glyph-name="bar" unicode="|" horiz-adv-x="233" 
d="M101 -148v924h31v-924h-31z" />
    <glyph glyph-name="braceright" unicode="}" horiz-adv-x="351" 
d="M40 -145v28q87 1 121.5 36t16.5 127l-24 123q-23 121 91 147q-114 27 -91 147l24 123q18 92 -16.5 127t-121.5 36v28q103 0 147 -44t24 -148l-25 -121q-12 -62 17 -97.5t105 -36.5v-28q-76 0 -105 -36t-17 -98l25 -120q20 -104 -24 -148.5t-147 -44.5z" />
    <glyph glyph-name="asciitilde" unicode="~" horiz-adv-x="433" 
d="M48 237q5 45 29.5 72t60.5 27q33 0 83.5 -33t73.5 -33q24 0 40.5 19.5t19.5 48.5h30q-5 -44 -29 -71.5t-60 -27.5q-34 0 -84 33t-73 33q-25 0 -41 -19.5t-20 -48.5h-30z" />
    <glyph glyph-name="uni00A0" unicode="&#xa0;" horiz-adv-x="280" 
 />
    <glyph glyph-name="exclamdown" unicode="&#xa1;" horiz-adv-x="263" 
d="M111 -117l5 551h28l5 -551h-38zM131 546q-12 0 -20 8.5t-8 19.5q0 12 8 20.5t20 8.5q13 0 21 -8.5t8 -20.5t-8 -20t-21 -8z" />
    <glyph glyph-name="cent" unicode="&#xa2;" horiz-adv-x="546" 
d="M271 -135v128q-99 5 -164 76.5t-65 187.5v8q0 115 65.5 187t163.5 78v99h31v-99q77 -4 133.5 -48.5t66.5 -119.5h-34q-9 62 -55 98.5t-111 39.5v-478q68 5 115.5 45.5t58.5 109.5h32q-12 -80 -68.5 -129.5t-137.5 -54.5v-128h-31zM77 257q0 -105 54.5 -167t139.5 -68v478
q-85 -5 -139.5 -67.5t-54.5 -167.5v-8z" />
    <glyph glyph-name="sterling" unicode="&#xa3;" horiz-adv-x="585" 
d="M50 334v29h74q-27 91 -27 157q0 91 59.5 146.5t154.5 55.5q93 0 146 -48t62 -131h-35q-22 148 -173 148q-79 0 -128 -47.5t-49 -123.5q0 -64 27 -157h239v-29h-230q21 -80 21 -139q0 -49 -22 -93q39 -2 119.5 -40t120.5 -38q50 0 79 30t32 86h33q-4 -67 -42.5 -107
t-98.5 -40q-50 0 -132 39.5t-117 39.5q-36 0 -58.5 -20t-27.5 -52h-33q5 36 28 63.5t61 35.5q25 43 25 96q0 58 -24 139h-84z" />
    <glyph glyph-name="yen" unicode="&#xa5;" horiz-adv-x="531" 
d="M65 318v29h182l-219 368h39l207 -349l193 349h36l-204 -368h178v-29h-186v-107h186v-29h-186v-182h-36v182h-190v29h190v107h-190z" />
    <glyph glyph-name="brokenbar" unicode="&#xa6;" horiz-adv-x="235" 
d="M101 -148v445h31v-445h-31zM101 367v409h31v-409h-31z" />
    <glyph glyph-name="section" unicode="&#xa7;" horiz-adv-x="532" 
d="M266 -137q-77 0 -127.5 39t-55.5 108h36q4 -55 43.5 -86t103.5 -31t98 32t34 87q0 58 -35 86.5t-127 52.5q-95 25 -141 59.5t-46 101.5q0 53 39 89t99 49q-40 23 -58.5 51.5t-18.5 76.5q0 64 47.5 105t116.5 41q72 0 114 -36.5t47 -102.5h-35q-11 109 -125 109
q-57 0 -94 -30.5t-37 -84.5t33 -82.5t122 -54.5q94 -28 139.5 -62.5t45.5 -99.5q0 -54 -34.5 -88.5t-95.5 -48.5q78 -39 78 -131q0 -67 -45 -108t-121 -41zM325 160q124 24 124 118q0 51 -36.5 78t-120.5 53l-76 25q-59 -10 -95.5 -41t-36.5 -79q0 -53 37.5 -79.5
t122.5 -51.5z" />
    <glyph glyph-name="dieresis" unicode="&#xa8;" horiz-adv-x="400" 
d="M123 638q-11 0 -18.5 8t-7.5 18t7.5 18t18.5 8t18.5 -7.5t7.5 -18.5t-7.5 -18.5t-18.5 -7.5zM277 638q-11 0 -18.5 7.5t-7.5 18.5t7.5 18.5t18.5 7.5t18.5 -7.5t7.5 -18.5t-7.5 -18.5t-18.5 -7.5z" />
    <glyph glyph-name="copyright" unicode="&#xa9;" horiz-adv-x="844" 
d="M425 148q-90 0 -143.5 58t-53.5 152v7q0 91 56.5 150.5t139.5 59.5q68 0 114.5 -34t56.5 -96h-33q-22 102 -138 102q-70 0 -116 -50.5t-46 -131.5v-6q0 -84 44 -133t119 -49q57 0 95 29t48 82h32q-11 -66 -58.5 -103t-116.5 -37zM421 -9q-153 0 -259.5 105.5
t-106.5 260.5q0 153 107 260t261 107q155 0 260.5 -106t105.5 -259q0 -156 -106.5 -262t-261.5 -106zM421 17q142 0 240.5 98t98.5 244q0 144 -97 241.5t-240 97.5q-142 0 -240.5 -98.5t-98.5 -242.5q0 -145 98.5 -242.5t238.5 -97.5z" />
    <glyph glyph-name="ordfeminine" unicode="&#xaa;" horiz-adv-x="418" 
d="M179 310q-62 0 -99.5 29t-37.5 83q0 121 183 121h95v37q0 59 -26 86.5t-82 27.5q-103 0 -119 -88h-33q7 57 50 86.5t104 29.5q139 0 139 -142v-265h-33v67q-42 -72 -141 -72zM183 337q57 0 97 30t40 73v77h-95q-71 0 -110.5 -20t-39.5 -74q0 -86 108 -86z" />
    <glyph glyph-name="guillemotleft" unicode="&#xab;" horiz-adv-x="415" 
d="M189 83l-137 178l137 178h36l-136 -178l136 -178h-36zM334 83l-137 178l137 178h36l-136 -178l136 -178h-36z" />
    <glyph glyph-name="registered" unicode="&#xae;" horiz-adv-x="514" 
d="M184 389v237h73q39 0 61.5 -17t22.5 -49v-1q0 -54 -60 -63l73 -107h-31l-72 104h-40v-104h-27zM211 515h47q55 0 55 43v1q0 44 -55 44h-47v-88zM257 282q-93 0 -157.5 63.5t-64.5 156.5q0 92 64.5 157t157.5 65q94 0 158 -64t64 -157t-64.5 -157t-157.5 -64zM257 304
q84 0 140.5 57t56.5 142t-56 142t-141 57q-84 0 -140.5 -57.5t-56.5 -142.5t57 -141.5t140 -56.5z" />
    <glyph glyph-name="macron" unicode="&#xaf;" horiz-adv-x="400" 
d="M85 647v28h230v-28h-230z" />
    <glyph glyph-name="degree" unicode="&#xb0;" horiz-adv-x="395" 
d="M198 467q48 0 80.5 33.5t32.5 80.5q0 49 -32.5 83t-80.5 34q-49 0 -82 -34t-33 -83q0 -47 33 -80.5t82 -33.5zM198 441q-61 0 -103.5 41t-42.5 99q0 59 42.5 101t103.5 42q60 0 102.5 -42t42.5 -101q0 -58 -42.5 -99t-102.5 -41z" />
    <glyph glyph-name="plusminus" unicode="&#xb1;" horiz-adv-x="505" 
d="M237 123v209h-200v30h200v210h31v-210h200v-30h-200v-209h-31zM37 0v30h431v-30h-431z" />
    <glyph glyph-name="twosuperior" unicode="&#xb2;" horiz-adv-x="288" 
d="M20 371v8l130 128q37 36 53 61.5t16 53.5q0 34 -21 53t-56 19q-75 0 -85 -85h-28q4 52 34 80.5t80 28.5q48 0 77 -26t29 -69q0 -35 -17 -63t-59 -67l-102 -97h181v-25h-232z" />
    <glyph glyph-name="threesuperior" unicode="&#xb3;" horiz-adv-x="307" 
d="M154 367q-56 0 -90.5 29t-37.5 73h29q4 -33 29.5 -55t68.5 -22q41 0 64 20t23 55q0 32 -21.5 52t-59.5 20h-27v24h25q35 0 54 18.5t19 46.5q0 30 -21.5 48.5t-55.5 18.5q-38 0 -60 -20.5t-26 -52.5h-28q3 41 33.5 68.5t80.5 27.5q48 0 77 -25t29 -64q0 -60 -60 -77
q31 -6 51.5 -28.5t20.5 -56.5q0 -47 -32 -73.5t-85 -26.5z" />
    <glyph glyph-name="acute" unicode="&#xb4;" horiz-adv-x="400" 
d="M184 600l71 147h41l-84 -147h-28z" />
    <glyph glyph-name="paragraph" unicode="&#xb6;" horiz-adv-x="542" 
d="M269 -100v457h-14q-96 0 -153.5 45t-57.5 130q0 90 58.5 136.5t152.5 46.5h192v-815h-31v789h-117v-789h-30z" />
    <glyph glyph-name="periodcentered" unicode="&#xb7;" horiz-adv-x="195" 
d="M98 293q-13 0 -21 8.5t-8 20.5t8 20.5t21 8.5q12 0 20 -8.5t8 -20.5t-8 -20.5t-20 -8.5z" />
    <glyph glyph-name="cedilla" unicode="&#xb8;" horiz-adv-x="400" 
d="M211 -211q-38 0 -63 20.5t-29 54.5h32q7 -47 59 -47q26 0 41 13.5t15 35.5q0 45 -52 45q-19 0 -39 -10l-20 18l46 81h32l-38 -67q40 12 72 -6t32 -62q0 -36 -24.5 -56t-63.5 -20z" />
    <glyph glyph-name="onesuperior" unicode="&#xb9;" horiz-adv-x="208" 
d="M111 371v309l-91 -65v29l99 71h23v-344h-31z" />
    <glyph glyph-name="ordmasculine" unicode="&#xba;" horiz-adv-x="464" 
d="M232 338q68 0 113 47.5t45 127.5v6q0 80 -45 127t-112 47t-113 -48t-46 -127v-6q0 -78 45.5 -126t112.5 -48zM231 310q-81 0 -136 56.5t-55 145.5v6q0 91 56 147t137 56q82 0 136.5 -55t54.5 -147v-6q0 -92 -55.5 -147.5t-137.5 -55.5z" />
    <glyph glyph-name="guillemotright" unicode="&#xbb;" horiz-adv-x="415" 
d="M45 83l136 178l-136 178h36l138 -178l-138 -178h-36zM190 83l136 178l-136 178h36l138 -178l-138 -178h-36z" />
    <glyph glyph-name="onequarter" unicode="&#xbc;" horiz-adv-x="650" 
d="M114 371v309l-91 -65v29l99 71h23v-344h-31zM44 0l522 715h31l-522 -715h-31zM543 0v77h-182v11l171 256h41v-242h47v-25h-47v-77h-30zM398 102h145v220z" />
    <glyph glyph-name="onehalf" unicode="&#xbd;" horiz-adv-x="658" 
d="M25 0l522 715h31l-522 -715h-31zM116 371v309l-91 -65v29l99 71h23v-344h-31zM386 0v8l130 129q37 36 53 61.5t16 53.5q0 33 -21.5 52t-55.5 19q-75 0 -85 -85h-28q4 52 34 81t80 29q48 0 77 -26.5t29 -69.5q0 -34 -17 -62t-59 -68l-102 -97h181v-25h-232z" />
    <glyph glyph-name="threequarters" unicode="&#xbe;" horiz-adv-x="671" 
d="M157 367q-56 0 -90.5 29t-37.5 73h29q4 -33 29.5 -55t68.5 -22q41 0 64 20t23 55q0 32 -21.5 52t-59.5 20h-27v24h25q35 0 54 18.5t19 46.5q0 30 -21.5 48.5t-55.5 18.5q-38 0 -60 -20.5t-26 -52.5h-28q3 41 33.5 68.5t80.5 27.5q48 0 77 -25t29 -64q0 -60 -60 -77
q31 -6 51.5 -28.5t20.5 -56.5q0 -47 -32 -73.5t-85 -26.5zM87 0l522 715h31l-522 -715h-31zM558 0v77h-182v11l171 256h41v-242h47v-25h-47v-77h-30zM413 102h145v220z" />
    <glyph glyph-name="questiondown" unicode="&#xbf;" horiz-adv-x="469" 
d="M276 434v-62q0 -37 -14.5 -70t-31 -52t-53.5 -56q-36 -36 -49.5 -50.5t-28.5 -45.5t-15 -65q0 -58 37 -92.5t108 -34.5q72 0 117.5 43.5t50.5 118.5h34q-5 -87 -60.5 -139.5t-142.5 -52.5q-86 0 -132.5 43.5t-46.5 113.5q0 18 2 33t9.5 30.5t11 24t17.5 25t17.5 20.5
t23.5 24l23 23q28 28 39 40t26 33.5t20.5 42t5.5 45.5v60h32zM260 603q12 0 20.5 -8.5t8.5 -20.5q0 -11 -8.5 -19.5t-20.5 -8.5t-20.5 8.5t-8.5 19.5q0 12 8.5 20.5t20.5 8.5z" />
    <glyph glyph-name="Agrave" unicode="&#xc0;" horiz-adv-x="641" 
d="M32 0l264 715h48l266 -715h-36l-85 228h-339l-84 -228h-34zM319 686l-158 -428h317zM305 771l-81 120h42l68 -120h-29z" />
    <glyph glyph-name="Aacute" unicode="&#xc1;" horiz-adv-x="641" 
d="M32 0l264 715h48l266 -715h-36l-85 228h-339l-84 -228h-34zM319 686l-158 -428h317zM293 771l69 120h41l-81 -120h-29z" />
    <glyph glyph-name="Acircumflex" unicode="&#xc2;" horiz-adv-x="641" 
d="M32 0l264 715h48l266 -715h-36l-85 228h-339l-84 -228h-34zM319 686l-158 -428h317zM186 771l112 120h34l110 -120h-30l-97 90l-99 -90h-30z" />
    <glyph glyph-name="Atilde" unicode="&#xc3;" horiz-adv-x="641" 
d="M32 0l264 715h48l266 -715h-36l-85 228h-339l-84 -228h-34zM319 686l-158 -428h317zM381 773q-27 0 -70.5 30t-61.5 30q-43 0 -51 -59h-27q5 43 26 66t52 23q26 0 69.5 -30t62.5 -30q42 0 50 59h27q-5 -43 -26 -66t-51 -23z" />
    <glyph glyph-name="Adieresis" unicode="&#xc4;" horiz-adv-x="641" 
d="M32 0l264 715h48l266 -715h-36l-85 228h-339l-84 -228h-34zM319 686l-158 -428h317zM231 788q-11 0 -18.5 7.5t-7.5 18.5t7.5 18.5t18.5 7.5t18.5 -7.5t7.5 -18.5t-7.5 -18.5t-18.5 -7.5zM397 788q-11 0 -18.5 7.5t-7.5 18.5t7.5 18.5t18.5 7.5t18.5 -7.5t7.5 -18.5
t-7.5 -18.5t-18.5 -7.5z" />
    <glyph glyph-name="Aring" unicode="&#xc5;" horiz-adv-x="641" 
d="M32 0l264 715h48l266 -715h-36l-85 228h-339l-84 -228h-34zM319 686l-158 -428h317zM314 752q-37 0 -64.5 26.5t-27.5 62.5q0 37 27 64t65 27q39 0 66 -26.5t27 -64.5q0 -36 -27 -62.5t-66 -26.5zM314 774q28 0 47.5 19.5t19.5 47.5q0 29 -19 48.5t-48 19.5
q-27 0 -46.5 -19.5t-19.5 -48.5q0 -28 19.5 -47.5t46.5 -19.5z" />
    <glyph glyph-name="AE" unicode="&#xc6;" horiz-adv-x="943" 
d="M28 0l359 715h491v-30h-371v-301h301v-31h-301v-322h389v-31h-425v228h-291l-114 -228h-38zM408 685l-213 -427h276v427h-63z" />
    <glyph glyph-name="Ccedilla" unicode="&#xc7;" horiz-adv-x="723" 
d="M366 -211q-38 0 -63 20.5t-29 54.5h32q7 -47 59 -47q26 0 41 13.5t15 35.5q0 45 -52 45q-19 0 -39 -10l-20 18l42 75q-138 10 -219.5 108t-81.5 251v8q0 156 96 258.5t235 102.5q112 0 190.5 -56.5t96.5 -159.5h-36q-19 89 -83.5 137.5t-167.5 48.5q-127 0 -210.5 -92.5
t-83.5 -237.5v-8q0 -150 80 -240t215 -90q102 0 172.5 53.5t89.5 147.5h33q-20 -109 -100 -170t-194 -62l-34 -60q40 12 72 -6t32 -62q0 -36 -24.5 -56t-63.5 -20z" />
    <glyph glyph-name="Egrave" unicode="&#xc8;" horiz-adv-x="566" 
d="M286 771l-81 120h42l68 -120h-29zM94 0v715h406v-30h-370v-301h301v-31h-301v-322h388v-31h-424z" />
    <glyph glyph-name="Eacute" unicode="&#xc9;" horiz-adv-x="566" 
d="M274 771l69 120h41l-81 -120h-29zM94 0v715h406v-30h-370v-301h301v-31h-301v-322h388v-31h-424z" />
    <glyph glyph-name="Ecircumflex" unicode="&#xca;" horiz-adv-x="566" 
d="M167 771l112 120h34l110 -120h-30l-97 90l-99 -90h-30zM94 0v715h406v-30h-370v-301h301v-31h-301v-322h388v-31h-424z" />
    <glyph glyph-name="Edieresis" unicode="&#xcb;" horiz-adv-x="566" 
d="M94 0v715h406v-30h-370v-301h301v-31h-301v-322h388v-31h-424zM212 788q-11 0 -18.5 7.5t-7.5 18.5t7.5 18.5t18.5 7.5t18.5 -7.5t7.5 -18.5t-7.5 -18.5t-18.5 -7.5zM378 788q-11 0 -18.5 7.5t-7.5 18.5t7.5 18.5t18.5 7.5t18.5 -7.5t7.5 -18.5t-7.5 -18.5t-18.5 -7.5z
" />
    <glyph glyph-name="Igrave" unicode="&#xcc;" horiz-adv-x="234" 
d="M99 0v715h36v-715h-36zM108 771l-81 120h42l68 -120h-29z" />
    <glyph glyph-name="Iacute" unicode="&#xcd;" horiz-adv-x="234" 
d="M99 0v715h36v-715h-36zM96 771l69 120h41l-81 -120h-29z" />
    <glyph glyph-name="Icircumflex" unicode="&#xce;" horiz-adv-x="234" 
d="M99 0v715h36v-715h-36zM-11 771l112 120h34l110 -120h-30l-97 90l-99 -90h-30z" />
    <glyph glyph-name="Idieresis" unicode="&#xcf;" horiz-adv-x="234" 
d="M99 0v715h36v-715h-36zM34 788q-11 0 -18.5 7.5t-7.5 18.5t7.5 18.5t18.5 7.5t18.5 -7.5t7.5 -18.5t-7.5 -18.5t-18.5 -7.5zM200 788q-11 0 -18.5 7.5t-7.5 18.5t7.5 18.5t18.5 7.5t18.5 -7.5t7.5 -18.5t-7.5 -18.5t-18.5 -7.5z" />
    <glyph glyph-name="Eth" unicode="&#xd0;" horiz-adv-x="685" 
d="M24 345v30h75v340h183q168 0 260 -98t92 -253v-8q0 -157 -90.5 -256.5t-263.5 -99.5h-181v345h-75zM135 31h143q156 0 237.5 89.5t81.5 235.5v8q0 144 -81 232.5t-239 88.5h-142v-310h209v-30h-209v-314z" />
    <glyph glyph-name="Ntilde" unicode="&#xd1;" horiz-adv-x="707" 
d="M431 773q-27 0 -70.5 30t-61.5 30q-43 0 -51 -59h-27q5 43 26 66t52 23q26 0 69.5 -30t62.5 -30q42 0 50 59h27q-5 -43 -26 -66t-51 -23zM94 0v715h51l433 -667v667h35v-715h-44l-440 678v-678h-35z" />
    <glyph glyph-name="Ograve" unicode="&#xd2;" horiz-adv-x="795" 
d="M388 771l-81 120h42l68 -120h-29zM400 24q133 0 220 95t87 237v8q0 139 -87.5 233.5t-221.5 94.5q-135 0 -222.5 -94.5t-87.5 -236.5v-8q0 -140 89.5 -234.5t222.5 -94.5zM400 -7q-149 0 -249 104.5t-100 255.5v8q0 152 100 256.5t247 104.5t246.5 -103.5t99.5 -254.5v-8
q0 -152 -99 -257.5t-245 -105.5z" />
    <glyph glyph-name="Oacute" unicode="&#xd3;" horiz-adv-x="795" 
d="M376 771l69 120h41l-81 -120h-29zM400 24q133 0 220 95t87 237v8q0 139 -87.5 233.5t-221.5 94.5q-135 0 -222.5 -94.5t-87.5 -236.5v-8q0 -140 89.5 -234.5t222.5 -94.5zM400 -7q-149 0 -249 104.5t-100 255.5v8q0 152 100 256.5t247 104.5t246.5 -103.5t99.5 -254.5v-8
q0 -152 -99 -257.5t-245 -105.5z" />
    <glyph glyph-name="Ocircumflex" unicode="&#xd4;" horiz-adv-x="795" 
d="M269 771l112 120h34l110 -120h-30l-97 90l-99 -90h-30zM400 24q133 0 220 95t87 237v8q0 139 -87.5 233.5t-221.5 94.5q-135 0 -222.5 -94.5t-87.5 -236.5v-8q0 -140 89.5 -234.5t222.5 -94.5zM400 -7q-149 0 -249 104.5t-100 255.5v8q0 152 100 256.5t247 104.5
t246.5 -103.5t99.5 -254.5v-8q0 -152 -99 -257.5t-245 -105.5z" />
    <glyph glyph-name="Otilde" unicode="&#xd5;" horiz-adv-x="795" 
d="M464 773q-27 0 -70.5 30t-61.5 30q-43 0 -51 -59h-27q5 43 26 66t52 23q26 0 69.5 -30t62.5 -30q42 0 50 59h27q-5 -43 -26 -66t-51 -23zM400 24q133 0 220 95t87 237v8q0 139 -87.5 233.5t-221.5 94.5q-135 0 -222.5 -94.5t-87.5 -236.5v-8q0 -140 89.5 -234.5
t222.5 -94.5zM400 -7q-149 0 -249 104.5t-100 255.5v8q0 152 100 256.5t247 104.5t246.5 -103.5t99.5 -254.5v-8q0 -152 -99 -257.5t-245 -105.5z" />
    <glyph glyph-name="Odieresis" unicode="&#xd6;" horiz-adv-x="795" 
d="M314 788q-11 0 -18.5 7.5t-7.5 18.5t7.5 18.5t18.5 7.5t18.5 -7.5t7.5 -18.5t-7.5 -18.5t-18.5 -7.5zM480 788q-11 0 -18.5 7.5t-7.5 18.5t7.5 18.5t18.5 7.5t18.5 -7.5t7.5 -18.5t-7.5 -18.5t-18.5 -7.5zM400 24q133 0 220 95t87 237v8q0 139 -87.5 233.5t-221.5 94.5
q-135 0 -222.5 -94.5t-87.5 -236.5v-8q0 -140 89.5 -234.5t222.5 -94.5zM400 -7q-149 0 -249 104.5t-100 255.5v8q0 152 100 256.5t247 104.5t246.5 -103.5t99.5 -254.5v-8q0 -152 -99 -257.5t-245 -105.5z" />
    <glyph glyph-name="multiply" unicode="&#xd7;" horiz-adv-x="492" 
d="M74 150l-21 21l166 164l-166 166l21 21l165 -165l165 165l21 -21l-165 -166l165 -164l-21 -21l-165 165z" />
    <glyph glyph-name="Oslash" unicode="&#xd8;" horiz-adv-x="795" 
d="M67 -20l-22 22l96 106q-90 101 -90 245v8q0 152 100 256.5t247 104.5q128 0 223 -82l88 98l22 -22l-87 -97q100 -103 100 -255v-8q0 -152 -99 -257.5t-245 -105.5q-140 0 -238 93zM400 24q133 0 220 95t87 237v8q0 139 -85 232l-438 -486q88 -86 216 -86zM88 353
q0 -129 75 -220l437 484q-85 75 -202 75q-135 0 -222.5 -94.5t-87.5 -236.5v-8z" />
    <glyph glyph-name="Ugrave" unicode="&#xd9;" horiz-adv-x="674" 
d="M328 771l-81 120h42l68 -120h-29zM336 -5q-120 0 -188 66.5t-68 191.5v462h36v-459q0 -114 56.5 -172t163.5 -58q114 0 167.5 59.5t53.5 183.5v446h36v-451q0 -129 -64 -199t-193 -70z" />
    <glyph glyph-name="Uacute" unicode="&#xda;" horiz-adv-x="674" 
d="M315 771l69 120h41l-81 -120h-29zM336 -5q-120 0 -188 66.5t-68 191.5v462h36v-459q0 -114 56.5 -172t163.5 -58q114 0 167.5 59.5t53.5 183.5v446h36v-451q0 -129 -64 -199t-193 -70z" />
    <glyph glyph-name="Ucircumflex" unicode="&#xdb;" horiz-adv-x="674" 
d="M208 771l112 120h34l110 -120h-30l-97 90l-99 -90h-30zM336 -5q-120 0 -188 66.5t-68 191.5v462h36v-459q0 -114 56.5 -172t163.5 -58q114 0 167.5 59.5t53.5 183.5v446h36v-451q0 -129 -64 -199t-193 -70z" />
    <glyph glyph-name="Udieresis" unicode="&#xdc;" horiz-adv-x="674" 
d="M336 -5q-120 0 -188 66.5t-68 191.5v462h36v-459q0 -114 56.5 -172t163.5 -58q114 0 167.5 59.5t53.5 183.5v446h36v-451q0 -129 -64 -199t-193 -70zM253 788q-11 0 -18.5 7.5t-7.5 18.5t7.5 18.5t18.5 7.5t18.5 -7.5t7.5 -18.5t-7.5 -18.5t-18.5 -7.5zM419 788
q-11 0 -18.5 7.5t-7.5 18.5t7.5 18.5t18.5 7.5t18.5 -7.5t7.5 -18.5t-7.5 -18.5t-18.5 -7.5z" />
    <glyph glyph-name="Yacute" unicode="&#xdd;" horiz-adv-x="565" 
d="M272 0v322l-250 393h41l228 -362l215 362h37l-235 -393v-322h-36zM266 771l69 120h41l-81 -120h-29z" />
    <glyph glyph-name="Thorn" unicode="&#xde;" horiz-adv-x="559" 
d="M94 0v715h35v-150h145q239 0 239 -191v-4q0 -193 -239 -193h-145v-177h-35zM129 207h146q98 0 150 38t52 125v4q0 87 -52.5 123.5t-149.5 36.5h-146v-327z" />
    <glyph glyph-name="germandbls" unicode="&#xdf;" horiz-adv-x="557" 
d="M311 -5q-56 0 -96 16v30q43 -17 95 -17q74 0 123 43.5t49 138.5v7q0 93 -66.5 156t-162.5 61v30q79 0 122.5 44t43.5 105v4q0 62 -38 98t-108 36q-74 0 -116 -46t-42 -125v-576h-34v575q0 92 54 146.5t139 54.5q83 0 131 -45.5t48 -117.5v-4q0 -58 -36.5 -102.5
t-97.5 -59.5q81 -14 139.5 -78.5t58.5 -154.5v-7q0 -110 -59.5 -161t-146.5 -51z" />
    <glyph glyph-name="agrave" unicode="&#xe0;" horiz-adv-x="521" 
d="M225 -8q-82 0 -130.5 38.5t-48.5 108.5q0 157 235 157h130v51q0 80 -35 117t-111 37q-65 0 -108.5 -30t-53.5 -91h-34q9 74 64.5 112.5t132.5 38.5q179 0 179 -184v-347h-34v89q-25 -43 -72.5 -70t-113.5 -27zM227 21q75 0 129.5 40.5t54.5 98.5v108h-130
q-94 0 -147.5 -28t-53.5 -101q0 -57 38 -87.5t109 -30.5zM257 600l-84 147h41l72 -147h-29z" />
    <glyph glyph-name="aacute" unicode="&#xe1;" horiz-adv-x="521" 
d="M225 -8q-82 0 -130.5 38.5t-48.5 108.5q0 157 235 157h130v51q0 80 -35 117t-111 37q-65 0 -108.5 -30t-53.5 -91h-34q9 74 64.5 112.5t132.5 38.5q179 0 179 -184v-347h-34v89q-25 -43 -72.5 -70t-113.5 -27zM227 21q75 0 129.5 40.5t54.5 98.5v108h-130
q-94 0 -147.5 -28t-53.5 -101q0 -57 38 -87.5t109 -30.5zM244 600l71 147h41l-84 -147h-28z" />
    <glyph glyph-name="acircumflex" unicode="&#xe2;" horiz-adv-x="521" 
d="M225 -8q-82 0 -130.5 38.5t-48.5 108.5q0 157 235 157h130v51q0 80 -35 117t-111 37q-65 0 -108.5 -30t-53.5 -91h-34q9 74 64.5 112.5t132.5 38.5q179 0 179 -184v-347h-34v89q-25 -43 -72.5 -70t-113.5 -27zM227 21q75 0 129.5 40.5t54.5 98.5v108h-130
q-94 0 -147.5 -28t-53.5 -101q0 -57 38 -87.5t109 -30.5zM136 600l111 129h34l109 -129h-30l-96 100l-98 -100h-30z" />
    <glyph glyph-name="atilde" unicode="&#xe3;" horiz-adv-x="521" 
d="M225 -8q-82 0 -130.5 38.5t-48.5 108.5q0 157 235 157h130v51q0 80 -35 117t-111 37q-65 0 -108.5 -30t-53.5 -91h-34q9 74 64.5 112.5t132.5 38.5q179 0 179 -184v-347h-34v89q-25 -43 -72.5 -70t-113.5 -27zM227 21q75 0 129.5 40.5t54.5 98.5v108h-130
q-94 0 -147.5 -28t-53.5 -101q0 -57 38 -87.5t109 -30.5zM333 615q-27 0 -71 29t-62 29t-32 -15t-18 -43h-27q5 43 26 65.5t52 22.5q26 0 70 -29.5t63 -29.5q18 0 31.5 15.5t17.5 43.5h27q-5 -43 -26 -65.5t-51 -22.5z" />
    <glyph glyph-name="adieresis" unicode="&#xe4;" horiz-adv-x="521" 
d="M225 -8q-82 0 -130.5 38.5t-48.5 108.5q0 157 235 157h130v51q0 80 -35 117t-111 37q-65 0 -108.5 -30t-53.5 -91h-34q9 74 64.5 112.5t132.5 38.5q179 0 179 -184v-347h-34v89q-25 -43 -72.5 -70t-113.5 -27zM227 21q75 0 129.5 40.5t54.5 98.5v108h-130
q-94 0 -147.5 -28t-53.5 -101q0 -57 38 -87.5t109 -30.5zM189 638q-11 0 -18.5 8t-7.5 18t7.5 18t18.5 8t18.5 -7.5t7.5 -18.5t-7.5 -18.5t-18.5 -7.5zM343 638q-11 0 -18.5 7.5t-7.5 18.5t7.5 18.5t18.5 7.5t18.5 -7.5t7.5 -18.5t-7.5 -18.5t-18.5 -7.5z" />
    <glyph glyph-name="aring" unicode="&#xe5;" horiz-adv-x="521" 
d="M225 -8q-82 0 -130.5 38.5t-48.5 108.5q0 157 235 157h130v51q0 80 -35 117t-111 37q-65 0 -108.5 -30t-53.5 -91h-34q9 74 64.5 112.5t132.5 38.5q179 0 179 -184v-347h-34v89q-25 -43 -72.5 -70t-113.5 -27zM227 21q75 0 129.5 40.5t54.5 98.5v108h-130
q-94 0 -147.5 -28t-53.5 -101q0 -57 38 -87.5t109 -30.5zM266 625q28 0 47.5 19.5t19.5 47.5q0 29 -19 48.5t-48 19.5q-27 0 -46.5 -19.5t-19.5 -48.5q0 -28 19.5 -47.5t46.5 -19.5zM266 603q-37 0 -64.5 26.5t-27.5 62.5q0 37 27 64t65 27q39 0 66 -26.5t27 -64.5
q0 -36 -27 -62.5t-66 -26.5z" />
    <glyph glyph-name="ae" unicode="&#xe6;" horiz-adv-x="909" 
d="M652 -8q-81 0 -136.5 39.5t-80.5 109.5q-17 -70 -75.5 -109.5t-133.5 -39.5q-83 0 -131.5 38t-48.5 108q0 154 232 154h136v54q0 80 -36.5 117.5t-111.5 37.5q-66 0 -109.5 -30t-53.5 -91h-34q9 73 65 112t133 39q152 0 174 -137q27 64 80.5 100.5t123.5 36.5
q99 0 160.5 -66t61.5 -186v-15h-419q1 -115 53 -178.5t151 -63.5q144 0 177 122h34q-18 -72 -74 -112t-137 -40zM228 21q77 0 131.5 44t54.5 115v84h-135q-95 0 -147 -27t-52 -99q0 -57 38 -87t110 -30zM448 292h384q-2 102 -52 155.5t-135 53.5q-83 0 -137 -57t-60 -152z
" />
    <glyph glyph-name="ccedilla" unicode="&#xe7;" horiz-adv-x="547" 
d="M267 -211q-38 0 -63 20.5t-29 54.5h32q7 -47 59 -47q26 0 41 13.5t15 35.5q0 45 -52 45q-19 0 -39 -10l-20 18l43 76q-92 11 -152 83t-60 179v8q0 117 71.5 191.5t175.5 74.5q82 0 142.5 -45.5t70.5 -123.5h-34q-9 66 -59.5 102.5t-119.5 36.5q-90 0 -151 -64.5
t-61 -171.5v-8q0 -106 60.5 -170.5t150.5 -64.5q73 0 124.5 41t63.5 114h32q-12 -83 -73 -134t-147 -51h-4l-33 -59q40 12 72 -6t32 -62q0 -36 -24.5 -56t-63.5 -20z" />
    <glyph glyph-name="egrave" unicode="&#xe8;" horiz-adv-x="545" 
d="M286 -8q-112 0 -178 73.5t-66 191.5v8q0 117 67 191.5t170 74.5q100 0 162 -66t62 -186v-15h-426q1 -115 55 -178.5t154 -63.5q69 0 116.5 31t62.5 91h34q-18 -72 -74.5 -112t-138.5 -40zM78 293h391q-3 101 -54 154.5t-136 53.5q-84 0 -139.5 -57t-61.5 -151zM268 600
l-84 147h41l72 -147h-29z" />
    <glyph glyph-name="eacute" unicode="&#xe9;" horiz-adv-x="545" 
d="M255 600l71 147h41l-84 -147h-28zM286 -8q-112 0 -178 73.5t-66 191.5v8q0 117 67 191.5t170 74.5q100 0 162 -66t62 -186v-15h-426q1 -115 55 -178.5t154 -63.5q69 0 116.5 31t62.5 91h34q-18 -72 -74.5 -112t-138.5 -40zM78 293h391q-3 101 -54 154.5t-136 53.5
q-84 0 -139.5 -57t-61.5 -151z" />
    <glyph glyph-name="ecircumflex" unicode="&#xea;" horiz-adv-x="545" 
d="M151 600l111 129h34l109 -129h-30l-96 100l-98 -100h-30zM286 -8q-112 0 -178 73.5t-66 191.5v8q0 117 67 191.5t170 74.5q100 0 162 -66t62 -186v-15h-426q1 -115 55 -178.5t154 -63.5q69 0 116.5 31t62.5 91h34q-18 -72 -74.5 -112t-138.5 -40zM78 293h391
q-3 101 -54 154.5t-136 53.5q-84 0 -139.5 -57t-61.5 -151z" />
    <glyph glyph-name="edieresis" unicode="&#xeb;" horiz-adv-x="545" 
d="M201 638q-11 0 -18.5 8t-7.5 18t7.5 18t18.5 8t18.5 -7.5t7.5 -18.5t-7.5 -18.5t-18.5 -7.5zM355 638q-11 0 -18.5 7.5t-7.5 18.5t7.5 18.5t18.5 7.5t18.5 -7.5t7.5 -18.5t-7.5 -18.5t-18.5 -7.5zM286 -8q-112 0 -178 73.5t-66 191.5v8q0 117 67 191.5t170 74.5
q100 0 162 -66t62 -186v-15h-426q1 -115 55 -178.5t154 -63.5q69 0 116.5 31t62.5 91h34q-18 -72 -74.5 -112t-138.5 -40zM78 293h391q-3 101 -54 154.5t-136 53.5q-84 0 -139.5 -57t-61.5 -151z" />
    <glyph glyph-name="igrave" unicode="&#xec;" horiz-adv-x="200" 
d="M83 0v523h34v-523h-34zM86 600l-84 147h41l72 -147h-29z" />
    <glyph glyph-name="iacute" unicode="&#xed;" horiz-adv-x="200" 
d="M83 600l71 147h41l-84 -147h-28zM83 0v523h34v-523h-34z" />
    <glyph glyph-name="icircumflex" unicode="&#xee;" horiz-adv-x="200" 
d="M-27 600l111 129h34l109 -129h-30l-96 100l-98 -100h-30zM83 0v523h34v-523h-34z" />
    <glyph glyph-name="idieresis" unicode="&#xef;" horiz-adv-x="200" 
d="M36 638q-11 0 -18.5 7.5t-7.5 18.5t7.5 18.5t18.5 7.5q10 0 18 -8t8 -18t-8 -18t-18 -8zM165 638q-11 0 -18.5 7.5t-7.5 18.5t7.5 18.5t18.5 7.5t18.5 -8t7.5 -18t-7.5 -18t-18.5 -8zM83 0v523h34v-523h-34z" />
    <glyph glyph-name="eth" unicode="&#xf0;" horiz-adv-x="588" 
d="M144 589l-14 23l134 78q-54 42 -123 83h49q53 -29 103 -67l108 63l15 -24l-100 -57q225 -185 225 -413v-17q0 -116 -72.5 -191t-177.5 -75q-104 0 -176.5 75.5t-72.5 189.5v8q0 115 71.5 190.5t167.5 75.5q129 0 200 -104q-58 133 -193 244zM291 22q91 0 153 65t62 172
v17q0 100 -62.5 162.5t-156.5 62.5q-87 0 -148.5 -65t-61.5 -171v-8q0 -105 62 -170t152 -65z" />
    <glyph glyph-name="ntilde" unicode="&#xf1;" horiz-adv-x="573" 
d="M81 0v523h34v-114q19 50 72.5 86t122.5 36q88 0 137.5 -51t49.5 -157v-323h-34v324q0 177 -158 177q-75 0 -132.5 -49.5t-57.5 -134.5v-317h-34zM352 615q-27 0 -71 29t-62 29t-32 -15t-18 -43h-27q5 43 26 65.5t52 22.5q26 0 70 -29.5t63 -29.5q18 0 31.5 15.5
t17.5 43.5h27q-5 -43 -26 -65.5t-51 -22.5z" />
    <glyph glyph-name="ograve" unicode="&#xf2;" horiz-adv-x="583" 
d="M292 22q91 0 152.5 64.5t61.5 171.5v8q0 107 -61.5 171t-151.5 64q-91 0 -153.5 -65t-62.5 -171v-8q0 -105 62 -170t153 -65zM291 -8q-104 0 -176.5 75.5t-72.5 189.5v8q0 115 73.5 190t177.5 75q105 0 176.5 -73.5t71.5 -190.5v-8q0 -116 -72.5 -191t-177.5 -75z
M282 600l-84 147h41l72 -147h-29z" />
    <glyph glyph-name="oacute" unicode="&#xf3;" horiz-adv-x="583" 
d="M269 600l71 147h41l-84 -147h-28zM292 22q91 0 152.5 64.5t61.5 171.5v8q0 107 -61.5 171t-151.5 64q-91 0 -153.5 -65t-62.5 -171v-8q0 -105 62 -170t153 -65zM291 -8q-104 0 -176.5 75.5t-72.5 189.5v8q0 115 73.5 190t177.5 75q105 0 176.5 -73.5t71.5 -190.5v-8
q0 -116 -72.5 -191t-177.5 -75z" />
    <glyph glyph-name="ocircumflex" unicode="&#xf4;" horiz-adv-x="583" 
d="M164 600l111 129h34l109 -129h-30l-96 100l-98 -100h-30zM292 22q91 0 152.5 64.5t61.5 171.5v8q0 107 -61.5 171t-151.5 64q-91 0 -153.5 -65t-62.5 -171v-8q0 -105 62 -170t153 -65zM291 -8q-104 0 -176.5 75.5t-72.5 189.5v8q0 115 73.5 190t177.5 75
q105 0 176.5 -73.5t71.5 -190.5v-8q0 -116 -72.5 -191t-177.5 -75z" />
    <glyph glyph-name="otilde" unicode="&#xf5;" horiz-adv-x="583" 
d="M292 22q91 0 152.5 64.5t61.5 171.5v8q0 107 -61.5 171t-151.5 64q-91 0 -153.5 -65t-62.5 -171v-8q0 -105 62 -170t153 -65zM291 -8q-104 0 -176.5 75.5t-72.5 189.5v8q0 115 73.5 190t177.5 75q105 0 176.5 -73.5t71.5 -190.5v-8q0 -116 -72.5 -191t-177.5 -75z
M358 615q-27 0 -71 29t-62 29t-32 -15t-18 -43h-27q5 43 26 65.5t52 22.5q26 0 70 -29.5t63 -29.5q18 0 31.5 15.5t17.5 43.5h27q-5 -43 -26 -65.5t-51 -22.5z" />
    <glyph glyph-name="odieresis" unicode="&#xf6;" horiz-adv-x="583" 
d="M214 638q-10 0 -18 8t-8 18t8 18t18 8q11 0 18.5 -7.5t7.5 -18.5t-7.5 -18.5t-18.5 -7.5zM368 638q-11 0 -18.5 7.5t-7.5 18.5t7.5 18.5t18.5 7.5t18.5 -7.5t7.5 -18.5t-7.5 -18.5t-18.5 -7.5zM292 22q91 0 152.5 64.5t61.5 171.5v8q0 107 -61.5 171t-151.5 64
q-91 0 -153.5 -65t-62.5 -171v-8q0 -105 62 -170t153 -65zM291 -8q-104 0 -176.5 75.5t-72.5 189.5v8q0 115 73.5 190t177.5 75q105 0 176.5 -73.5t71.5 -190.5v-8q0 -116 -72.5 -191t-177.5 -75z" />
    <glyph glyph-name="divide" unicode="&#xf7;" horiz-adv-x="505" 
d="M252 143q-12 0 -20 8.5t-8 20.5t8 20.5t20 8.5q13 0 21 -8.5t8 -20.5t-8 -20.5t-21 -8.5zM37 327v30h431v-30h-431zM252 484q-12 0 -20 8.5t-8 19.5q0 12 8 20.5t20 8.5q13 0 21 -8.5t8 -20.5t-8.5 -20t-20.5 -8z" />
    <glyph glyph-name="oslash" unicode="&#xf8;" horiz-adv-x="583" 
d="M58 -19l-22 19l69 77q-63 74 -63 180v8q0 115 73.5 190t177.5 75q94 0 162 -60l63 70l22 -19l-64 -72q65 -73 65 -183v-8q0 -116 -72.5 -191t-177.5 -75q-97 0 -166 64zM292 22q91 0 152.5 64.5t61.5 171.5v8q0 96 -52 159l-308 -345q61 -58 146 -58zM77 257
q0 -91 50 -156l307 345q-58 55 -141 55q-91 0 -153.5 -65t-62.5 -171v-8z" />
    <glyph glyph-name="ugrave" unicode="&#xf9;" horiz-adv-x="569" 
d="M262 -8q-186 0 -186 201v330h34v-329q0 -171 157 -171q75 0 131 48t56 133v319h34v-523h-34v112q-19 -51 -70.5 -85.5t-121.5 -34.5zM275 600l-84 147h41l72 -147h-29z" />
    <glyph glyph-name="uacute" unicode="&#xfa;" horiz-adv-x="569" 
d="M262 600l71 147h41l-84 -147h-28zM262 -8q-186 0 -186 201v330h34v-329q0 -171 157 -171q75 0 131 48t56 133v319h34v-523h-34v112q-19 -51 -70.5 -85.5t-121.5 -34.5z" />
    <glyph glyph-name="ucircumflex" unicode="&#xfb;" horiz-adv-x="569" 
d="M158 600l111 129h34l109 -129h-30l-96 100l-98 -100h-30zM262 -8q-186 0 -186 201v330h34v-329q0 -171 157 -171q75 0 131 48t56 133v319h34v-523h-34v112q-19 -51 -70.5 -85.5t-121.5 -34.5z" />
    <glyph glyph-name="udieresis" unicode="&#xfc;" horiz-adv-x="569" 
d="M208 638q-10 0 -18 8t-8 18t8 18t18 8q11 0 18.5 -7.5t7.5 -18.5t-7.5 -18.5t-18.5 -7.5zM362 638q-11 0 -18.5 7.5t-7.5 18.5t7.5 18.5t18.5 7.5t18.5 -7.5t7.5 -18.5t-7.5 -18.5t-18.5 -7.5zM262 -8q-186 0 -186 201v330h34v-329q0 -171 157 -171q75 0 131 48t56 133
v319h34v-523h-34v112q-19 -51 -70.5 -85.5t-121.5 -34.5z" />
    <glyph glyph-name="yacute" unicode="&#xfd;" horiz-adv-x="495" 
d="M142 -182l92 222l-208 483h36l190 -444l181 444h36l-292 -705h-35zM225 600l71 147h41l-84 -147h-28z" />
    <glyph glyph-name="thorn" unicode="&#xfe;" horiz-adv-x="602" 
d="M81 -182v955h34v-394q25 64 83 108t131 44q99 0 165 -72.5t66 -192.5v-8q0 -122 -66 -194t-166 -72q-80 0 -135 43.5t-78 104.5v-322h-34zM326 22q88 0 143.5 63t55.5 172v8q0 110 -57 173t-141 63q-86 0 -149 -64t-63 -172v-8q0 -108 61 -171.5t150 -63.5z" />
    <glyph glyph-name="ydieresis" unicode="&#xff;" horiz-adv-x="495" 
d="M142 -182l92 222l-208 483h36l190 -444l181 444h36l-292 -705h-35zM174 638q-10 0 -18 8t-8 18t8 18t18 8q11 0 18.5 -7.5t7.5 -18.5t-7.5 -18.5t-18.5 -7.5zM328 638q-11 0 -18.5 7.5t-7.5 18.5t7.5 18.5t18.5 7.5t18.5 -7.5t7.5 -18.5t-7.5 -18.5t-18.5 -7.5z" />
    <glyph glyph-name="Amacron" unicode="&#x100;" horiz-adv-x="641" 
d="M32 0l264 715h48l266 -715h-36l-85 228h-339l-84 -228h-34zM319 686l-158 -428h317zM196 794v29h236v-29h-236z" />
    <glyph glyph-name="amacron" unicode="&#x101;" horiz-adv-x="521" 
d="M225 -8q-82 0 -130.5 38.5t-48.5 108.5q0 157 235 157h130v51q0 80 -35 117t-111 37q-65 0 -108.5 -30t-53.5 -91h-34q9 74 64.5 112.5t132.5 38.5q179 0 179 -184v-347h-34v89q-25 -43 -72.5 -70t-113.5 -27zM227 21q75 0 129.5 40.5t54.5 98.5v108h-130
q-94 0 -147.5 -28t-53.5 -101q0 -57 38 -87.5t109 -30.5zM151 647v28h230v-28h-230z" />
    <glyph glyph-name="Abreve" unicode="&#x102;" horiz-adv-x="641" 
d="M32 0l264 715h48l266 -715h-36l-85 228h-339l-84 -228h-34zM319 686l-158 -428h317zM313 773q-50 0 -84.5 33t-38.5 84h30q4 -38 30 -63t63 -25t64 25t31 63h29q-3 -50 -39 -83.5t-85 -33.5z" />
    <glyph glyph-name="abreve" unicode="&#x103;" horiz-adv-x="521" 
d="M225 -8q-82 0 -130.5 38.5t-48.5 108.5q0 157 235 157h130v51q0 80 -35 117t-111 37q-65 0 -108.5 -30t-53.5 -91h-34q9 74 64.5 112.5t132.5 38.5q179 0 179 -184v-347h-34v89q-25 -43 -72.5 -70t-113.5 -27zM227 21q75 0 129.5 40.5t54.5 98.5v108h-130
q-94 0 -147.5 -28t-53.5 -101q0 -57 38 -87.5t109 -30.5zM265 614q-49 0 -81 31.5t-36 82.5h30q4 -39 27 -62t60 -23q36 0 60 23t29 62h29q-3 -51 -36.5 -82.5t-81.5 -31.5z" />
    <glyph glyph-name="Aogonek" unicode="&#x104;" horiz-adv-x="641" 
d="M579 -182q-40 0 -63.5 20t-23.5 52q0 63 82 113h-2l-84 225h-338l-84 -228h-34l264 715h48l265 -714q-83 -54 -83 -107q0 -48 56 -48q26 0 49 9v-27q-23 -10 -52 -10zM319 686l-158 -428h316z" />
    <glyph glyph-name="aogonek" unicode="&#x105;" horiz-adv-x="521" 
d="M417 -182q-40 0 -63.5 20t-23.5 52q0 63 82 114h-1v85q-25 -43 -72.5 -70t-113.5 -27q-82 0 -130.5 38.5t-48.5 108.5q0 157 235 157h130v51q0 80 -35 117t-111 37q-65 0 -108.5 -30t-53.5 -91h-34q9 74 64.5 112.5t132.5 38.5q179 0 179 -184v-346q-82 -52 -82 -107
q0 -22 14.5 -35.5t42.5 -13.5q25 0 49 9v-26q-23 -10 -52 -10zM227 21q75 0 129.5 40.5t54.5 98.5v109h-130q-94 0 -147.5 -28.5t-53.5 -101.5q0 -57 38 -87.5t109 -30.5z" />
    <glyph glyph-name="Cacute" unicode="&#x106;" horiz-adv-x="723" 
d="M382 -7q-150 0 -240.5 99.5t-90.5 260.5v8q0 156 96 258.5t235 102.5q112 0 190.5 -56.5t96.5 -159.5h-36q-19 89 -83.5 137.5t-167.5 48.5q-127 0 -210.5 -92.5t-83.5 -237.5v-8q0 -150 80 -240t215 -90q102 0 172.5 53.5t89.5 147.5h33q-20 -109 -100.5 -170.5
t-195.5 -61.5zM362 771l69 120h41l-81 -120h-29z" />
    <glyph glyph-name="cacute" unicode="&#x107;" horiz-adv-x="547" 
d="M262 600l71 147h41l-84 -147h-28zM288 -8q-104 0 -175 74t-71 191v8q0 117 71.5 191.5t175.5 74.5q82 0 142.5 -45.5t70.5 -123.5h-34q-9 66 -59.5 102.5t-119.5 36.5q-90 0 -151 -64.5t-61 -171.5v-8q0 -106 60.5 -170.5t150.5 -64.5q73 0 124.5 41t63.5 114h32
q-12 -83 -73 -134t-147 -51z" />
    <glyph glyph-name="Ccircumflex" unicode="&#x108;" horiz-adv-x="723" 
d="M255 771l112 120h34l110 -120h-30l-97 90l-99 -90h-30zM382 -7q-150 0 -240.5 99.5t-90.5 260.5v8q0 156 96 258.5t235 102.5q112 0 190.5 -56.5t96.5 -159.5h-36q-19 89 -83.5 137.5t-167.5 48.5q-127 0 -210.5 -92.5t-83.5 -237.5v-8q0 -150 80 -240t215 -90
q102 0 172.5 53.5t89.5 147.5h33q-20 -109 -100.5 -170.5t-195.5 -61.5z" />
    <glyph glyph-name="ccircumflex" unicode="&#x109;" horiz-adv-x="547" 
d="M157 600l111 129h34l109 -129h-30l-96 100l-98 -100h-30zM288 -8q-104 0 -175 74t-71 191v8q0 117 71.5 191.5t175.5 74.5q82 0 142.5 -45.5t70.5 -123.5h-34q-9 66 -59.5 102.5t-119.5 36.5q-90 0 -151 -64.5t-61 -171.5v-8q0 -106 60.5 -170.5t150.5 -64.5
q73 0 124.5 41t63.5 114h32q-12 -83 -73 -134t-147 -51z" />
    <glyph glyph-name="Cdotaccent" unicode="&#x10a;" horiz-adv-x="723" 
d="M382 -7q-150 0 -240.5 99.5t-90.5 260.5v8q0 156 96 258.5t235 102.5q112 0 190.5 -56.5t96.5 -159.5h-36q-19 89 -83.5 137.5t-167.5 48.5q-127 0 -210.5 -92.5t-83.5 -237.5v-8q0 -150 80 -240t215 -90q102 0 172.5 53.5t89.5 147.5h33q-20 -109 -100.5 -170.5
t-195.5 -61.5zM382 787q-11 0 -18.5 8t-7.5 19t7.5 18.5t18.5 7.5t19 -7.5t8 -18.5t-8 -19t-19 -8z" />
    <glyph glyph-name="cdotaccent" unicode="&#x10b;" horiz-adv-x="547" 
d="M288 -8q-104 0 -175 74t-71 191v8q0 117 71.5 191.5t175.5 74.5q82 0 142.5 -45.5t70.5 -123.5h-34q-9 66 -59.5 102.5t-119.5 36.5q-90 0 -151 -64.5t-61 -171.5v-8q0 -106 60.5 -170.5t150.5 -64.5q73 0 124.5 41t63.5 114h32q-12 -83 -73 -134t-147 -51zM284 637
q-11 0 -18.5 8t-7.5 19t7.5 18.5t18.5 7.5t19 -7.5t8 -18.5t-8 -19t-19 -8z" />
    <glyph glyph-name="Ccaron" unicode="&#x10c;" horiz-adv-x="723" 
d="M365 771l-111 120h30l99 -91l100 91h29l-113 -120h-34zM382 -7q-150 0 -240.5 99.5t-90.5 260.5v8q0 156 96 258.5t235 102.5q112 0 190.5 -56.5t96.5 -159.5h-36q-19 89 -83.5 137.5t-167.5 48.5q-127 0 -210.5 -92.5t-83.5 -237.5v-8q0 -150 80 -240t215 -90
q102 0 172.5 53.5t89.5 147.5h33q-20 -109 -100.5 -170.5t-195.5 -61.5z" />
    <glyph glyph-name="ccaron" unicode="&#x10d;" horiz-adv-x="547" 
d="M266 613l-109 129h30l97 -100l97 100h30l-111 -129h-34zM288 -8q-104 0 -175 74t-71 191v8q0 117 71.5 191.5t175.5 74.5q82 0 142.5 -45.5t70.5 -123.5h-34q-9 66 -59.5 102.5t-119.5 36.5q-90 0 -151 -64.5t-61 -171.5v-8q0 -106 60.5 -170.5t150.5 -64.5
q73 0 124.5 41t63.5 114h32q-12 -83 -73 -134t-147 -51z" />
    <glyph glyph-name="Dcaron" unicode="&#x10e;" horiz-adv-x="680" 
d="M295 771l-111 120h30l99 -91l100 91h29l-113 -120h-34zM130 31h143q156 0 237.5 89.5t81.5 235.5v8q0 144 -81 232.5t-239 88.5h-142v-654zM94 0v715h183q168 0 260 -98t92 -253v-8q0 -157 -90.5 -256.5t-263.5 -99.5h-181z" />
    <glyph glyph-name="dcaron" unicode="&#x10f;" horiz-adv-x="602" 
d="M581 619l13 154h37l-23 -154h-27zM277 -8q-102 0 -168.5 71t-66.5 193v8q0 119 70 193t173 74q78 0 128 -41t74 -103v386h34v-773h-34v140q-21 -59 -76.5 -103.5t-133.5 -44.5zM279 22q88 0 148.5 63.5t60.5 171.5v8q0 110 -56.5 173t-144.5 63q-90 0 -150 -63.5
t-60 -172.5v-8q0 -109 57 -172t145 -63z" />
    <glyph glyph-name="Dcroat" unicode="&#x110;" horiz-adv-x="685" 
d="M24 345v30h75v340h183q168 0 260 -98t92 -253v-8q0 -157 -90.5 -256.5t-263.5 -99.5h-181v345h-75zM135 31h143q156 0 237.5 89.5t81.5 235.5v8q0 144 -81 232.5t-239 88.5h-142v-310h209v-30h-209v-314z" />
    <glyph glyph-name="dcroat" unicode="&#x111;" horiz-adv-x="602" 
d="M292 629v27h195v117h34v-117h80v-27h-80v-629h-34v140q-21 -59 -76.5 -103.5t-133.5 -44.5q-102 0 -168.5 71t-66.5 193v8q0 119 70 193t173 74q78 0 128 -41t74 -103v242h-195zM279 22q88 0 148.5 63.5t60.5 171.5v8q0 110 -56.5 173t-144.5 63q-90 0 -150 -63.5
t-60 -172.5v-8q0 -109 57 -172t145 -63z" />
    <glyph glyph-name="Emacron" unicode="&#x112;" horiz-adv-x="566" 
d="M94 0v715h406v-30h-370v-301h301v-31h-301v-322h388v-31h-424zM177 794v29h236v-29h-236z" />
    <glyph glyph-name="emacron" unicode="&#x113;" horiz-adv-x="545" 
d="M286 -8q-112 0 -178 73.5t-66 191.5v8q0 117 67 191.5t170 74.5q100 0 162 -66t62 -186v-15h-426q1 -115 55 -178.5t154 -63.5q69 0 116.5 31t62.5 91h34q-18 -72 -74.5 -112t-138.5 -40zM78 293h391q-3 101 -54 154.5t-136 53.5q-84 0 -139.5 -57t-61.5 -151zM163 647
v28h230v-28h-230z" />
    <glyph glyph-name="Ebreve" unicode="&#x114;" horiz-adv-x="566" 
d="M94 0v715h406v-30h-370v-301h301v-31h-301v-322h388v-31h-424zM296 773q-50 0 -84.5 33t-38.5 84h30q4 -38 30 -63t63 -25t64 25t31 63h29q-3 -50 -39 -83.5t-85 -33.5z" />
    <glyph glyph-name="ebreve" unicode="&#x115;" horiz-adv-x="545" 
d="M286 -8q-112 0 -178 73.5t-66 191.5v8q0 117 67 191.5t170 74.5q100 0 162 -66t62 -186v-15h-426q1 -115 55 -178.5t154 -63.5q69 0 116.5 31t62.5 91h34q-18 -72 -74.5 -112t-138.5 -40zM78 293h391q-3 101 -54 154.5t-136 53.5q-84 0 -139.5 -57t-61.5 -151zM275 614
q-49 0 -81 31.5t-36 82.5h30q4 -39 27 -62t60 -23q36 0 60 23t29 62h29q-3 -51 -36.5 -82.5t-81.5 -31.5z" />
    <glyph glyph-name="Edotaccent" unicode="&#x116;" horiz-adv-x="566" 
d="M295 787q-11 0 -18.5 8t-7.5 19t7.5 18.5t18.5 7.5t19 -7.5t8 -18.5t-8 -19t-19 -8zM94 0v715h406v-30h-370v-301h301v-31h-301v-322h388v-31h-424z" />
    <glyph glyph-name="edotaccent" unicode="&#x117;" horiz-adv-x="545" 
d="M286 -8q-112 0 -178 73.5t-66 191.5v8q0 117 67 191.5t170 74.5q100 0 162 -66t62 -186v-15h-426q1 -115 55 -178.5t154 -63.5q69 0 116.5 31t62.5 91h34q-18 -72 -74.5 -112t-138.5 -40zM78 293h391q-3 101 -54 154.5t-136 53.5q-84 0 -139.5 -57t-61.5 -151zM278 637
q-11 0 -18.5 8t-7.5 19t7.5 18.5t18.5 7.5t19 -7.5t8 -18.5t-8 -19t-19 -8z" />
    <glyph glyph-name="Eogonek" unicode="&#x118;" horiz-adv-x="566" 
d="M426 -182q-41 0 -64 20t-23 52q0 62 77 110h-322v715h406v-30h-370v-301h301v-31h-301v-322h388v-31h-64q-81 -53 -81 -106q0 -48 56 -48q25 0 49 9v-27q-23 -10 -52 -10z" />
    <glyph glyph-name="eogonek" unicode="&#x119;" horiz-adv-x="545" 
d="M366 -182q-41 0 -64 20t-23 52q0 63 82 114q-36 -12 -75 -12q-112 0 -178 73.5t-66 191.5v8q0 117 67 191.5t170 74.5q100 0 162 -66t62 -186v-15h-426q1 -115 55 -178.5t154 -63.5q69 0 116.5 31t62.5 91h34q-16 -66 -73 -113q-7 -6 -36 -28.5t-40.5 -34t-24.5 -32.5
t-13 -42q0 -22 14.5 -35.5t42.5 -13.5q25 0 49 9v-26q-23 -10 -52 -10zM78 293h391q-3 101 -54 154.5t-136 53.5q-84 0 -139.5 -57t-61.5 -151z" />
    <glyph glyph-name="Ecaron" unicode="&#x11a;" horiz-adv-x="566" 
d="M278 771l-111 120h30l99 -91l100 91h29l-113 -120h-34zM94 0v715h406v-30h-370v-301h301v-31h-301v-322h388v-31h-424z" />
    <glyph glyph-name="ecaron" unicode="&#x11b;" horiz-adv-x="545" 
d="M260 613l-109 129h30l97 -100l97 100h30l-111 -129h-34zM286 -8q-112 0 -178 73.5t-66 191.5v8q0 117 67 191.5t170 74.5q100 0 162 -66t62 -186v-15h-426q1 -115 55 -178.5t154 -63.5q69 0 116.5 31t62.5 91h34q-18 -72 -74.5 -112t-138.5 -40zM78 293h391
q-3 101 -54 154.5t-136 53.5q-84 0 -139.5 -57t-61.5 -151z" />
    <glyph glyph-name="Gcircumflex" unicode="&#x11c;" horiz-adv-x="750" 
d="M259 771l112 120h34l110 -120h-30l-97 90l-99 -90h-30zM393 -7q-157 0 -249.5 100t-92.5 260v8q0 156 97 258.5t241 102.5q108 0 186 -51.5t98 -151.5h-36q-21 87 -86.5 130t-160.5 43q-132 0 -217 -92.5t-85 -237.5v-8q0 -151 80.5 -240.5t224.5 -89.5q130 0 199.5 73
t70.5 206v7h-227v31h262v-33q0 -151 -82 -233t-223 -82z" />
    <glyph glyph-name="gcircumflex" unicode="&#x11d;" horiz-adv-x="602" 
d="M160 600l111 129h34l109 -129h-30l-96 100l-98 -100h-30zM286 -187q-106 0 -164 44.5t-69 112.5h35q11 -58 60 -92.5t137 -34.5q93 0 147.5 46.5t54.5 146.5v125q-21 -58 -76.5 -101t-133.5 -43q-101 0 -168 68t-67 183v8q0 112 70 183.5t173 71.5q78 0 128.5 -39
t73.5 -100v131h34v-489q0 -111 -64 -166t-171 -55zM279 46q88 0 148.5 61t60.5 163v7q0 104 -56.5 164t-144.5 60q-90 0 -150 -60.5t-60 -163.5v-8q0 -103 57 -163t145 -60z" />
    <glyph glyph-name="Gbreve" unicode="&#x11e;" horiz-adv-x="750" 
d="M386 773q-50 0 -84.5 33t-38.5 84h30q4 -38 30 -63t63 -25t64 25t31 63h29q-3 -50 -39 -83.5t-85 -33.5zM393 -7q-157 0 -249.5 100t-92.5 260v8q0 156 97 258.5t241 102.5q108 0 186 -51.5t98 -151.5h-36q-21 87 -86.5 130t-160.5 43q-132 0 -217 -92.5t-85 -237.5v-8
q0 -151 80.5 -240.5t224.5 -89.5q130 0 199.5 73t70.5 206v7h-227v31h262v-33q0 -151 -82 -233t-223 -82z" />
    <glyph glyph-name="gbreve" unicode="&#x11f;" horiz-adv-x="602" 
d="M286 -187q-106 0 -164 44.5t-69 112.5h35q11 -58 60 -92.5t137 -34.5q93 0 147.5 46.5t54.5 146.5v125q-21 -58 -76.5 -101t-133.5 -43q-101 0 -168 68t-67 183v8q0 112 70 183.5t173 71.5q78 0 128.5 -39t73.5 -100v131h34v-489q0 -111 -64 -166t-171 -55zM279 46
q88 0 148.5 61t60.5 163v7q0 104 -56.5 164t-144.5 60q-90 0 -150 -60.5t-60 -163.5v-8q0 -103 57 -163t145 -60zM286 614q-49 0 -81 31.5t-36 82.5h30q4 -39 27 -62t60 -23q36 0 60 23t29 62h29q-3 -51 -36.5 -82.5t-81.5 -31.5z" />
    <glyph glyph-name="Gdotaccent" unicode="&#x120;" horiz-adv-x="750" 
d="M387 787q-11 0 -18.5 8t-7.5 19t7.5 18.5t18.5 7.5t19 -7.5t8 -18.5t-8 -19t-19 -8zM393 -7q-157 0 -249.5 100t-92.5 260v8q0 156 97 258.5t241 102.5q108 0 186 -51.5t98 -151.5h-36q-21 87 -86.5 130t-160.5 43q-132 0 -217 -92.5t-85 -237.5v-8q0 -151 80.5 -240.5
t224.5 -89.5q130 0 199.5 73t70.5 206v7h-227v31h262v-33q0 -151 -82 -233t-223 -82z" />
    <glyph glyph-name="gdotaccent" unicode="&#x121;" horiz-adv-x="602" 
d="M286 -187q-106 0 -164 44.5t-69 112.5h35q11 -58 60 -92.5t137 -34.5q93 0 147.5 46.5t54.5 146.5v125q-21 -58 -76.5 -101t-133.5 -43q-101 0 -168 68t-67 183v8q0 112 70 183.5t173 71.5q78 0 128.5 -39t73.5 -100v131h34v-489q0 -111 -64 -166t-171 -55zM279 46
q88 0 148.5 61t60.5 163v7q0 104 -56.5 164t-144.5 60q-90 0 -150 -60.5t-60 -163.5v-8q0 -103 57 -163t145 -60zM287 637q-11 0 -18.5 8t-7.5 19t7.5 18.5t18.5 7.5t19 -7.5t8 -18.5t-8 -19t-19 -8z" />
    <glyph glyph-name="Gcommaaccent" unicode="&#x122;" horiz-adv-x="750" 
d="M347 -195l-24 11l58 140l34 -9zM393 -7q-157 0 -249.5 100t-92.5 260v8q0 156 97 258.5t241 102.5q108 0 186 -51.5t98 -151.5h-36q-21 87 -86.5 130t-160.5 43q-132 0 -217 -92.5t-85 -237.5v-8q0 -151 80.5 -240.5t224.5 -89.5q130 0 199.5 73t70.5 206v7h-227v31h262
v-33q0 -151 -82 -233t-223 -82z" />
    <glyph glyph-name="gcommaaccent" unicode="&#x123;" horiz-adv-x="602" 
d="M297 610l-34 9l68 142l24 -11zM286 -187q-106 0 -164 44.5t-69 112.5h35q11 -58 60 -92.5t137 -34.5q93 0 147.5 46.5t54.5 146.5v125q-21 -58 -76.5 -101t-133.5 -43q-101 0 -168 68t-67 183v8q0 112 70 183.5t173 71.5q78 0 128.5 -39t73.5 -100v131h34v-489
q0 -111 -64 -166t-171 -55zM279 46q88 0 148.5 61t60.5 163v7q0 104 -56.5 164t-144.5 60q-90 0 -150 -60.5t-60 -163.5v-8q0 -103 57 -163t145 -60z" />
    <glyph glyph-name="Hcircumflex" unicode="&#x124;" horiz-adv-x="709" 
d="M94 0v715h36v-339h449v339h36v-715h-36v345h-449v-345h-36zM226 771l112 120h34l110 -120h-30l-97 90l-99 -90h-30z" />
    <glyph glyph-name="hcircumflex" unicode="&#x125;" horiz-adv-x="573" 
d="M81 0v773h34v-364q19 50 72.5 86t122.5 36q88 0 137.5 -51t49.5 -157v-323h-34v324q0 177 -158 177q-75 0 -132.5 -49.5t-57.5 -134.5v-317h-34z" />
    <glyph glyph-name="Hbar" unicode="&#x126;" horiz-adv-x="709" 
d="M8 522v28h86v165h36v-165h449v165h36v-165h86v-28h-86v-522h-36v345h-449v-345h-36v522h-86zM130 376h449v146h-449v-146z" />
    <glyph glyph-name="hbar" unicode="&#x127;" horiz-adv-x="573" 
d="M2 629v27h79v117h34v-117h196v-27h-196v-220q19 50 72.5 86t122.5 36q88 0 137.5 -51t49.5 -157v-323h-34v324q0 177 -158 177q-75 0 -132.5 -49.5t-57.5 -134.5v-317h-34v629h-79z" />
    <glyph glyph-name="Itilde" unicode="&#x128;" horiz-adv-x="234" 
d="M99 0v715h36v-715h-36zM184 773q-27 0 -70.5 30t-61.5 30q-43 0 -51 -59h-27q5 43 26 66t52 23q26 0 69.5 -30t62.5 -30q42 0 50 59h27q-5 -43 -26 -66t-51 -23z" />
    <glyph glyph-name="itilde" unicode="&#x129;" horiz-adv-x="200" 
d="M83 0v523h34v-523h-34zM168 615q-27 0 -71 29t-62 29t-32 -15t-18 -43h-27q5 43 26 65.5t52 22.5q26 0 70 -29.5t63 -29.5q18 0 31.5 15.5t17.5 43.5h27q-5 -43 -26 -65.5t-51 -22.5z" />
    <glyph glyph-name="Imacron" unicode="&#x12a;" horiz-adv-x="234" 
d="M99 0v715h36v-715h-36zM-1 794v29h236v-29h-236z" />
    <glyph glyph-name="imacron" unicode="&#x12b;" horiz-adv-x="200" 
d="M20 647v28h161v-28h-161zM83 0v523h34v-523h-34z" />
    <glyph glyph-name="Ibreve" unicode="&#x12c;" horiz-adv-x="234" 
d="M99 0v715h36v-715h-36zM116 773q-50 0 -84.5 33t-38.5 84h30q4 -38 30 -63t63 -25t64 25t31 63h29q-3 -50 -39 -83.5t-85 -33.5z" />
    <glyph glyph-name="ibreve" unicode="&#x12d;" horiz-adv-x="200" 
d="M83 0v523h34v-523h-34zM100 614q-49 0 -81 31.5t-36 82.5h30q4 -39 27 -62t60 -23q36 0 60 23t29 62h29q-3 -51 -36.5 -82.5t-81.5 -31.5z" />
    <glyph glyph-name="Iogonek" unicode="&#x12e;" horiz-adv-x="234" 
d="M120 -182q-41 0 -64 20t-23 52q0 57 68 113h-2v712h36v-714q-68 -53 -68 -107q0 -48 56 -48q25 0 49 9v-27q-23 -10 -52 -10z" />
    <glyph glyph-name="iogonek" unicode="&#x12f;" horiz-adv-x="200" 
d="M109 -182q-40 0 -63.5 20t-23.5 52q0 55 63 112h-2v521h34v-522q-62 -58 -62 -107q0 -22 14.5 -35.5t42.5 -13.5q25 0 49 9v-26q-23 -10 -52 -10zM100 637q-11 0 -19 8t-8 19t8 18.5t19 7.5t18.5 -7.5t7.5 -18.5t-7.5 -19t-18.5 -8z" />
    <glyph glyph-name="Idotaccent" unicode="&#x130;" horiz-adv-x="234" 
d="M99 0v715h36v-715h-36zM117 787q-11 0 -18.5 8t-7.5 19t7.5 18.5t18.5 7.5t19 -7.5t8 -18.5t-8 -19t-19 -8z" />
    <glyph glyph-name="dotlessi" unicode="&#x131;" horiz-adv-x="200" 
d="M83 0v523h34v-523h-34z" />
    <glyph glyph-name="IJ" unicode="&#x132;" horiz-adv-x="590" 
d="M99 0v715h36v-715h-36zM338 -5q-59 0 -101 20v32q48 -22 99 -22q137 0 137 148v542h36v-543q0 -90 -45.5 -133.5t-125.5 -43.5z" />
    <glyph glyph-name="ij" unicode="&#x133;" horiz-adv-x="401" 
d="M83 0v523h34v-523h-34zM100 637q-11 0 -19 8t-8 19t8 18.5t19 7.5t18.5 -7.5t7.5 -18.5t-7.5 -19t-18.5 -8zM206 -186v30q43 4 60 26t17 70v583h34v-581q0 -64 -25.5 -95t-85.5 -33zM300 637q-11 0 -19 8t-8 19t8 18.5t19 7.5t18.5 -7.5t7.5 -18.5t-7.5 -19t-18.5 -8z
" />
    <glyph glyph-name="Jcircumflex" unicode="&#x134;" horiz-adv-x="389" 
d="M162 771l112 120h34l110 -120h-30l-97 90l-99 -90h-30zM137 -5q-59 0 -101 20v32q48 -22 99 -22q137 0 137 148v542h36v-543q0 -90 -45.5 -133.5t-125.5 -43.5z" />
    <glyph glyph-name="jcircumflex" unicode="&#x135;" horiz-adv-x="200" 
d="M6 -186v30q43 4 60 26t17 70v583h34v-581q0 -64 -25.5 -95t-85.5 -33zM-26 600l111 129h34l109 -129h-30l-96 100l-98 -100h-30z" />
    <glyph glyph-name="Kcommaaccent" unicode="&#x136;" horiz-adv-x="588" 
d="M265 -195l-24 11l58 140l34 -9zM515 0l-380 364l365 351h42l-363 -348l381 -367h-45zM94 0v715h36v-715h-36z" />
    <glyph glyph-name="kcommaaccent" unicode="&#x137;" horiz-adv-x="468" 
d="M205 -195l-24 11l58 140l34 -9zM407 0l-289 277l275 246h42l-275 -245l291 -278h-44zM81 0v773h34v-773h-34z" />
    <glyph glyph-name="Lacute" unicode="&#x139;" horiz-adv-x="528" 
d="M93 771l69 120h41l-81 -120h-29zM94 0v715h36v-684h360v-31h-396z" />
    <glyph glyph-name="lacute" unicode="&#x13a;" horiz-adv-x="201" 
d="M83 0v773h35v-773h-35z" />
    <glyph glyph-name="Lcommaaccent" unicode="&#x13b;" horiz-adv-x="528" 
d="M242 -195l-24 11l58 140l34 -9zM94 0v715h36v-684h360v-31h-396z" />
    <glyph glyph-name="lcommaaccent" unicode="&#x13c;" horiz-adv-x="201" 
d="M57 -195l-24 11l58 140l34 -9zM83 0v773h35v-773h-35z" />
    <glyph glyph-name="Lcaron" unicode="&#x13d;" horiz-adv-x="528" 
d="M310 558l26 157h38l-36 -157h-28zM94 0v715h36v-684h360v-31h-396z" />
    <glyph glyph-name="lcaron" unicode="&#x13e;" horiz-adv-x="201" 
d="M177 619l13 154h37l-23 -154h-27zM83 0v773h35v-773h-35z" />
    <glyph glyph-name="Ldot" unicode="&#x13f;" horiz-adv-x="528" 
d="M94 0v715h36v-684h360v-31h-396zM432 342q-13 0 -21 8.5t-8 20.5t8 20.5t21 8.5q12 0 20 -8.5t8 -20.5t-8 -20.5t-20 -8.5z" />
    <glyph glyph-name="ldot" unicode="&#x140;" horiz-adv-x="249" 
d="M83 0v773h35v-773h-35zM224 348q-13 0 -21 8.5t-8 20.5t8 20.5t21 8.5q12 0 20 -8.5t8 -20.5t-8 -20.5t-20 -8.5z" />
    <glyph glyph-name="Lslash" unicode="&#x141;" horiz-adv-x="539" 
d="M29 265v29l77 28v393h36v-379l237 88v-29l-237 -88v-276h360v-31h-396v293z" />
    <glyph glyph-name="lslash" unicode="&#x142;" horiz-adv-x="216" 
d="M13 345v32l78 52v344h34v-321l82 55v-32l-82 -55v-420h-34v397z" />
    <glyph glyph-name="Nacute" unicode="&#x143;" horiz-adv-x="707" 
d="M343 771l69 120h41l-81 -120h-29zM94 0v715h51l433 -667v667h35v-715h-44l-440 678v-678h-35z" />
    <glyph glyph-name="nacute" unicode="&#x144;" horiz-adv-x="573" 
d="M263 600l71 147h41l-84 -147h-28zM81 0v523h34v-114q19 50 72.5 86t122.5 36q88 0 137.5 -51t49.5 -157v-323h-34v324q0 177 -158 177q-75 0 -132.5 -49.5t-57.5 -134.5v-317h-34z" />
    <glyph glyph-name="Ncommaaccent" unicode="&#x145;" horiz-adv-x="707" 
d="M303 -195l-24 11l58 140l34 -9zM94 0v715h51l433 -667v667h35v-715h-44l-440 678v-678h-35z" />
    <glyph glyph-name="ncommaaccent" unicode="&#x146;" horiz-adv-x="573" 
d="M245 -195l-24 11l58 140l34 -9zM81 0v523h34v-114q19 50 72.5 86t122.5 36q88 0 137.5 -51t49.5 -157v-323h-34v324q0 177 -158 177q-75 0 -132.5 -49.5t-57.5 -134.5v-317h-34z" />
    <glyph glyph-name="Ncaron" unicode="&#x147;" horiz-adv-x="707" 
d="M346 771l-111 120h30l99 -91l100 91h29l-113 -120h-34zM94 0v715h51l433 -667v667h35v-715h-44l-440 678v-678h-35z" />
    <glyph glyph-name="ncaron" unicode="&#x148;" horiz-adv-x="573" 
d="M267 613l-109 129h30l97 -100l97 100h30l-111 -129h-34zM81 0v523h34v-114q19 50 72.5 86t122.5 36q88 0 137.5 -51t49.5 -157v-323h-34v324q0 177 -158 177q-75 0 -132.5 -49.5t-57.5 -134.5v-317h-34z" />
    <glyph glyph-name="napostrophe" unicode="&#x149;" horiz-adv-x="585" 
d="M-6 553l-24 11l66 156l34 -14zM92 0v523h34v-114q19 50 72.5 86t122.5 36q88 0 137.5 -51t49.5 -157v-323h-34v324q0 177 -158 177q-75 0 -132.5 -49.5t-57.5 -134.5v-317h-34z" />
    <glyph glyph-name="Eng" unicode="&#x14a;" horiz-adv-x="707" 
d="M441 -189q-56 0 -100 21v31q46 -21 99 -21q66 0 101.5 35.5t36.5 114.5l-449 686v-678h-35v715h51l433 -662v662h35v-718q0 -96 -45.5 -141t-126.5 -45z" />
    <glyph glyph-name="eng" unicode="&#x14b;" horiz-adv-x="573" 
d="M371 -186v30q51 5 71.5 30t20.5 84v366q0 177 -158 177q-75 0 -132.5 -49.5t-57.5 -134.5v-317h-34v523h34v-114q19 50 72.5 86t122.5 36q88 0 137.5 -51t49.5 -157v-363q0 -75 -29.5 -108.5t-96.5 -37.5z" />
    <glyph glyph-name="Omacron" unicode="&#x14c;" horiz-adv-x="795" 
d="M279 794v29h236v-29h-236zM400 24q133 0 220 95t87 237v8q0 139 -87.5 233.5t-221.5 94.5q-135 0 -222.5 -94.5t-87.5 -236.5v-8q0 -140 89.5 -234.5t222.5 -94.5zM400 -7q-149 0 -249 104.5t-100 255.5v8q0 152 100 256.5t247 104.5t246.5 -103.5t99.5 -254.5v-8
q0 -152 -99 -257.5t-245 -105.5z" />
    <glyph glyph-name="omacron" unicode="&#x14d;" horiz-adv-x="583" 
d="M176 647v28h230v-28h-230zM292 22q91 0 152.5 64.5t61.5 171.5v8q0 107 -61.5 171t-151.5 64q-91 0 -153.5 -65t-62.5 -171v-8q0 -105 62 -170t153 -65zM291 -8q-104 0 -176.5 75.5t-72.5 189.5v8q0 115 73.5 190t177.5 75q105 0 176.5 -73.5t71.5 -190.5v-8
q0 -116 -72.5 -191t-177.5 -75z" />
    <glyph glyph-name="Obreve" unicode="&#x14e;" horiz-adv-x="795" 
d="M396 773q-50 0 -84.5 33t-38.5 84h30q4 -38 30 -63t63 -25t64 25t31 63h29q-3 -50 -39 -83.5t-85 -33.5zM400 24q133 0 220 95t87 237v8q0 139 -87.5 233.5t-221.5 94.5q-135 0 -222.5 -94.5t-87.5 -236.5v-8q0 -140 89.5 -234.5t222.5 -94.5zM400 -7q-149 0 -249 104.5
t-100 255.5v8q0 152 100 256.5t247 104.5t246.5 -103.5t99.5 -254.5v-8q0 -152 -99 -257.5t-245 -105.5z" />
    <glyph glyph-name="obreve" unicode="&#x14f;" horiz-adv-x="583" 
d="M292 22q91 0 152.5 64.5t61.5 171.5v8q0 107 -61.5 171t-151.5 64q-91 0 -153.5 -65t-62.5 -171v-8q0 -105 62 -170t153 -65zM291 -8q-104 0 -176.5 75.5t-72.5 189.5v8q0 115 73.5 190t177.5 75q105 0 176.5 -73.5t71.5 -190.5v-8q0 -116 -72.5 -191t-177.5 -75z
M290 614q-49 0 -81 31.5t-36 82.5h30q4 -39 27 -62t60 -23q36 0 60 23t29 62h29q-3 -51 -36.5 -82.5t-81.5 -31.5z" />
    <glyph glyph-name="Ohungarumlaut" unicode="&#x150;" horiz-adv-x="795" 
d="M322 771l50 120h39l-61 -120h-28zM440 771l50 120h39l-61 -120h-28zM400 24q133 0 220 95t87 237v8q0 139 -87.5 233.5t-221.5 94.5q-135 0 -222.5 -94.5t-87.5 -236.5v-8q0 -140 89.5 -234.5t222.5 -94.5zM400 -7q-149 0 -249 104.5t-100 255.5v8q0 152 100 256.5
t247 104.5t246.5 -103.5t99.5 -254.5v-8q0 -152 -99 -257.5t-245 -105.5z" />
    <glyph glyph-name="ohungarumlaut" unicode="&#x151;" horiz-adv-x="583" 
d="M221 600l55 147h38l-65 -147h-28zM339 600l55 147h38l-65 -147h-28zM292 22q91 0 152.5 64.5t61.5 171.5v8q0 107 -61.5 171t-151.5 64q-91 0 -153.5 -65t-62.5 -171v-8q0 -105 62 -170t153 -65zM291 -8q-104 0 -176.5 75.5t-72.5 189.5v8q0 115 73.5 190t177.5 75
q105 0 176.5 -73.5t71.5 -190.5v-8q0 -116 -72.5 -191t-177.5 -75z" />
    <glyph glyph-name="OE" unicode="&#x152;" horiz-adv-x="957" 
d="M51 359q0 157 91 256.5t264 99.5h486v-30h-356v-301h286v-31h-286v-322h374v-31h-506q-168 0 -260.5 97.5t-92.5 252.5v9zM500 685h-92q-156 0 -238 -90t-82 -236v-8q0 -144 81.5 -232.5t239.5 -88.5h91v655z" />
    <glyph glyph-name="oe" unicode="&#x153;" horiz-adv-x="1009" 
d="M291 -8q-104 0 -176.5 75.5t-72.5 189.5v8q0 115 73.5 190t177.5 75q81 0 143 -46t87 -126q23 80 81.5 126.5t138.5 46.5q100 0 162 -66t62 -186v-15h-426q1 -115 55 -178.5t154 -63.5q69 0 116 31t63 91h34q-18 -72 -74.5 -112t-138.5 -40q-89 0 -147.5 46t-80.5 127
q-25 -79 -87.5 -126t-143.5 -47zM292 22q91 0 152.5 64.5t61.5 171.5v8q0 107 -61.5 171t-151.5 64q-91 0 -153.5 -65t-62.5 -171v-8q0 -105 62 -170t153 -65zM542 293h390q-2 101 -53 154.5t-136 53.5q-84 0 -139.5 -57t-61.5 -151z" />
    <glyph glyph-name="Racute" unicode="&#x154;" horiz-adv-x="593" 
d="M263 771l69 120h41l-81 -120h-29zM94 0v715h183q111 0 175 -45t64 -142v-4q0 -166 -190 -186l232 -338h-41l-230 335h-158v-335h-35zM129 365h149q202 0 202 159v4q0 157 -202 157h-149v-320z" />
    <glyph glyph-name="racute" unicode="&#x155;" horiz-adv-x="331" 
d="M162 600l71 147h41l-84 -147h-28zM81 0v523h34v-120q21 54 66.5 88.5t114.5 36.5v-31q-81 -3 -131 -53t-50 -152v-292h-34z" />
    <glyph glyph-name="Rcommaaccent" unicode="&#x156;" horiz-adv-x="593" 
d="M259 -195l-24 11l58 140l34 -9zM94 0v715h183q111 0 175 -45t64 -142v-4q0 -166 -190 -186l232 -338h-41l-230 335h-158v-335h-35zM129 365h149q202 0 202 159v4q0 157 -202 157h-149v-320z" />
    <glyph glyph-name="rcommaaccent" unicode="&#x157;" horiz-adv-x="331" 
d="M55 -195l-24 11l58 140l34 -9zM81 0v523h34v-120q21 54 66.5 88.5t114.5 36.5v-31q-81 -3 -131 -53t-50 -152v-292h-34z" />
    <glyph glyph-name="Rcaron" unicode="&#x158;" horiz-adv-x="593" 
d="M266 771l-111 120h30l99 -91l100 91h29l-113 -120h-34zM94 0v715h183q111 0 175 -45t64 -142v-4q0 -166 -190 -186l232 -338h-41l-230 335h-158v-335h-35zM129 365h149q202 0 202 159v4q0 157 -202 157h-149v-320z" />
    <glyph glyph-name="rcaron" unicode="&#x159;" horiz-adv-x="331" 
d="M166 613l-109 129h30l97 -100l97 100h30l-111 -129h-34zM81 0v523h34v-120q21 54 66.5 88.5t114.5 36.5v-31q-81 -3 -131 -53t-50 -152v-292h-34z" />
    <glyph glyph-name="Sacute" unicode="&#x15a;" horiz-adv-x="586" 
d="M299 -7q-119 0 -183.5 56t-76.5 148h35q26 -173 225 -173q92 0 145.5 46.5t53.5 118.5q0 81 -44.5 116t-158.5 52q-120 17 -173.5 60.5t-53.5 122.5q0 83 61 132.5t161 49.5q94 0 150.5 -44.5t69.5 -124.5h-34q-27 139 -186 139q-88 0 -137.5 -39t-49.5 -111
q0 -65 43.5 -100.5t153.5 -51.5q127 -19 180.5 -61t53.5 -139q0 -84 -64 -140.5t-171 -56.5zM268 771l69 120h41l-81 -120h-29z" />
    <glyph glyph-name="sacute" unicode="&#x15b;" horiz-adv-x="456" 
d="M207 600l71 147h41l-84 -147h-28zM235 -9q-89 0 -141 44.5t-58 118.5h33q8 -61 49.5 -97.5t116.5 -36.5q68 0 106.5 32.5t38.5 83.5q0 55 -31 78.5t-115 39.5q-98 17 -139 47t-41 95q0 60 49.5 97t121.5 37q156 0 177 -136h-33q-21 107 -145 107q-62 0 -100 -29t-38 -76
q0 -50 34.5 -73.5t121.5 -38.5q93 -17 132.5 -47t39.5 -99q0 -63 -48.5 -105t-130.5 -42z" />
    <glyph glyph-name="Scircumflex" unicode="&#x15c;" horiz-adv-x="586" 
d="M162 771l112 120h34l110 -120h-30l-97 90l-99 -90h-30zM299 -7q-119 0 -183.5 56t-76.5 148h35q26 -173 225 -173q92 0 145.5 46.5t53.5 118.5q0 81 -44.5 116t-158.5 52q-120 17 -173.5 60.5t-53.5 122.5q0 83 61 132.5t161 49.5q94 0 150.5 -44.5t69.5 -124.5h-34
q-27 139 -186 139q-88 0 -137.5 -39t-49.5 -111q0 -65 43.5 -100.5t153.5 -51.5q127 -19 180.5 -61t53.5 -139q0 -84 -64 -140.5t-171 -56.5z" />
    <glyph glyph-name="scircumflex" unicode="&#x15d;" horiz-adv-x="456" 
d="M102 600l111 129h34l109 -129h-30l-96 100l-98 -100h-30zM235 -9q-89 0 -141 44.5t-58 118.5h33q8 -61 49.5 -97.5t116.5 -36.5q68 0 106.5 32.5t38.5 83.5q0 55 -31 78.5t-115 39.5q-98 17 -139 47t-41 95q0 60 49.5 97t121.5 37q156 0 177 -136h-33q-21 107 -145 107
q-62 0 -100 -29t-38 -76q0 -50 34.5 -73.5t121.5 -38.5q93 -17 132.5 -47t39.5 -99q0 -63 -48.5 -105t-130.5 -42z" />
    <glyph glyph-name="Scedilla" unicode="&#x15e;" horiz-adv-x="586" 
d="M269 -211q-38 0 -63 20.5t-29 54.5h32q7 -47 59 -47q26 0 41 13.5t15 35.5q0 45 -52 45q-19 0 -39 -10l-20 18l43 76q-99 10 -153 64.5t-64 137.5h35q26 -173 225 -173q92 0 145.5 46.5t53.5 118.5q0 81 -44.5 116t-158.5 52q-120 17 -173.5 60.5t-53.5 122.5
q0 83 61 132.5t161 49.5q94 0 150.5 -44.5t69.5 -124.5h-34q-27 139 -186 139q-88 0 -137.5 -39t-49.5 -111q0 -65 43.5 -100.5t153.5 -51.5q127 -19 180.5 -61t53.5 -139q0 -84 -64 -140.5t-171 -56.5h-12l-34 -60q40 12 72 -6t32 -62q0 -36 -24.5 -56t-63.5 -20z" />
    <glyph glyph-name="scedilla" unicode="&#x15f;" horiz-adv-x="456" 
d="M212 -211q-38 0 -63 20.5t-29 54.5h32q7 -47 59 -47q26 0 41 13.5t15 35.5q0 45 -52 45q-19 0 -39 -10l-20 18l42 74q-73 9 -115 52t-47 109h33q8 -61 49.5 -97.5t116.5 -36.5q68 0 106.5 32.5t38.5 83.5q0 55 -31 78.5t-115 39.5q-98 17 -139 47t-41 95q0 60 49.5 97
t121.5 37q156 0 177 -136h-33q-21 107 -145 107q-62 0 -100 -29t-38 -76q0 -50 34.5 -73.5t121.5 -38.5q93 -17 132.5 -47t39.5 -99q0 -63 -48.5 -105t-130.5 -42h-6l-33 -58q40 12 72 -6t32 -62q0 -36 -24.5 -56t-63.5 -20z" />
    <glyph glyph-name="Scaron" unicode="&#x160;" horiz-adv-x="586" 
d="M269 771l-111 120h30l99 -91l100 91h29l-113 -120h-34zM299 -7q-119 0 -183.5 56t-76.5 148h35q26 -173 225 -173q92 0 145.5 46.5t53.5 118.5q0 81 -44.5 116t-158.5 52q-120 17 -173.5 60.5t-53.5 122.5q0 83 61 132.5t161 49.5q94 0 150.5 -44.5t69.5 -124.5h-34
q-27 139 -186 139q-88 0 -137.5 -39t-49.5 -111q0 -65 43.5 -100.5t153.5 -51.5q127 -19 180.5 -61t53.5 -139q0 -84 -64 -140.5t-171 -56.5z" />
    <glyph glyph-name="scaron" unicode="&#x161;" horiz-adv-x="456" 
d="M211 613l-109 129h30l97 -100l97 100h30l-111 -129h-34zM235 -9q-89 0 -141 44.5t-58 118.5h33q8 -61 49.5 -97.5t116.5 -36.5q68 0 106.5 32.5t38.5 83.5q0 55 -31 78.5t-115 39.5q-98 17 -139 47t-41 95q0 60 49.5 97t121.5 37q156 0 177 -136h-33q-21 107 -145 107
q-62 0 -100 -29t-38 -76q0 -50 34.5 -73.5t121.5 -38.5q93 -17 132.5 -47t39.5 -99q0 -63 -48.5 -105t-130.5 -42z" />
    <glyph glyph-name="Tcommaaccent" unicode="&#x162;" horiz-adv-x="558" 
d="M238 -195l-24 11l58 140l34 -9zM261 0v685h-230v30h497v-30h-231v-685h-36z" />
    <glyph glyph-name="tcommaaccent" unicode="&#x163;" horiz-adv-x="328" 
d="M138 -195l-24 11l58 140l34 -9zM221 -7q-56 0 -87.5 33t-31.5 97v371h-79v29h79v119h34v-119h146v-29h-146v-369q0 -51 23 -76.5t64 -25.5q38 0 66 11v-30q-31 -11 -68 -11z" />
    <glyph glyph-name="Tcaron" unicode="&#x164;" horiz-adv-x="558" 
d="M260 771l-111 120h30l99 -91l100 91h29l-113 -120h-34zM261 0v685h-230v30h497v-30h-231v-685h-36z" />
    <glyph glyph-name="tcaron" unicode="&#x165;" horiz-adv-x="328" 
d="M236 619l13 154h37l-23 -154h-27zM221 -7q-56 0 -87.5 33t-31.5 97v371h-79v29h79v119h34v-119h146v-29h-146v-369q0 -51 23 -76.5t64 -25.5q38 0 66 11v-30q-31 -11 -68 -11z" />
    <glyph glyph-name="Tbar" unicode="&#x166;" horiz-adv-x="558" 
d="M105 382v28h156v275h-230v30h497v-30h-231v-275h157v-28h-157v-382h-36v382h-156z" />
    <glyph glyph-name="tbar" unicode="&#x167;" horiz-adv-x="328" 
d="M23 315v27h79v152h-79v29h79v119h34v-119h146v-29h-146v-152h146v-27h-146v-190q0 -51 23 -76.5t64 -25.5q38 0 66 11v-30q-31 -11 -68 -11q-56 0 -87.5 33t-31.5 97v192h-79z" />
    <glyph glyph-name="Utilde" unicode="&#x168;" horiz-adv-x="674" 
d="M336 -5q-120 0 -188 66.5t-68 191.5v462h36v-459q0 -114 56.5 -172t163.5 -58q114 0 167.5 59.5t53.5 183.5v446h36v-451q0 -129 -64 -199t-193 -70zM403 773q-27 0 -70.5 30t-61.5 30q-43 0 -51 -59h-27q5 43 26 66t52 23q26 0 69.5 -30t62.5 -30q42 0 50 59h27
q-5 -43 -26 -66t-51 -23z" />
    <glyph glyph-name="utilde" unicode="&#x169;" horiz-adv-x="569" 
d="M262 -8q-186 0 -186 201v330h34v-329q0 -171 157 -171q75 0 131 48t56 133v319h34v-523h-34v112q-19 -51 -70.5 -85.5t-121.5 -34.5zM352 615q-27 0 -71 29t-62 29t-32 -15t-18 -43h-27q5 43 26 65.5t52 22.5q26 0 70 -29.5t63 -29.5q18 0 31.5 15.5t17.5 43.5h27
q-5 -43 -26 -65.5t-51 -22.5z" />
    <glyph glyph-name="Umacron" unicode="&#x16a;" horiz-adv-x="674" 
d="M336 -5q-120 0 -188 66.5t-68 191.5v462h36v-459q0 -114 56.5 -172t163.5 -58q114 0 167.5 59.5t53.5 183.5v446h36v-451q0 -129 -64 -199t-193 -70zM218 794v29h236v-29h-236z" />
    <glyph glyph-name="umacron" unicode="&#x16b;" horiz-adv-x="569" 
d="M262 -8q-186 0 -186 201v330h34v-329q0 -171 157 -171q75 0 131 48t56 133v319h34v-523h-34v112q-19 -51 -70.5 -85.5t-121.5 -34.5zM170 647v28h230v-28h-230z" />
    <glyph glyph-name="Ubreve" unicode="&#x16c;" horiz-adv-x="674" 
d="M336 -5q-120 0 -188 66.5t-68 191.5v462h36v-459q0 -114 56.5 -172t163.5 -58q114 0 167.5 59.5t53.5 183.5v446h36v-451q0 -129 -64 -199t-193 -70zM336 773q-50 0 -84.5 33t-38.5 84h30q4 -38 30 -63t63 -25t64 25t31 63h29q-3 -50 -39 -83.5t-85 -33.5z" />
    <glyph glyph-name="ubreve" unicode="&#x16d;" horiz-adv-x="569" 
d="M262 -8q-186 0 -186 201v330h34v-329q0 -171 157 -171q75 0 131 48t56 133v319h34v-523h-34v112q-19 -51 -70.5 -85.5t-121.5 -34.5zM284 614q-49 0 -81 31.5t-36 82.5h30q4 -39 27 -62t60 -23q36 0 60 23t29 62h29q-3 -51 -36.5 -82.5t-81.5 -31.5z" />
    <glyph glyph-name="Uring" unicode="&#x16e;" horiz-adv-x="674" 
d="M336 -5q-120 0 -188 66.5t-68 191.5v462h36v-459q0 -114 56.5 -172t163.5 -58q114 0 167.5 59.5t53.5 183.5v446h36v-451q0 -129 -64 -199t-193 -70zM336 747q28 0 47.5 19.5t19.5 47.5q0 29 -19 48.5t-48 19.5q-27 0 -46.5 -19.5t-19.5 -48.5q0 -28 19.5 -47.5
t46.5 -19.5zM336 725q-37 0 -64.5 26.5t-27.5 62.5q0 37 27 64t65 27q39 0 66 -26.5t27 -64.5q0 -36 -27 -62.5t-66 -26.5z" />
    <glyph glyph-name="uring" unicode="&#x16f;" horiz-adv-x="569" 
d="M284 618q28 0 47.5 19.5t19.5 47.5q0 29 -19 48.5t-48 19.5q-27 0 -46.5 -19.5t-19.5 -48.5q0 -28 19.5 -47.5t46.5 -19.5zM284 596q-37 0 -64.5 26.5t-27.5 62.5q0 37 27 64t65 27q39 0 66 -26.5t27 -64.5q0 -36 -27 -62.5t-66 -26.5zM262 -8q-186 0 -186 201v330h34
v-329q0 -171 157 -171q75 0 131 48t56 133v319h34v-523h-34v112q-19 -51 -70.5 -85.5t-121.5 -34.5z" />
    <glyph glyph-name="Uhungarumlaut" unicode="&#x170;" horiz-adv-x="674" 
d="M261 771l50 120h39l-61 -120h-28zM379 771l50 120h39l-61 -120h-28zM336 -5q-120 0 -188 66.5t-68 191.5v462h36v-459q0 -114 56.5 -172t163.5 -58q114 0 167.5 59.5t53.5 183.5v446h36v-451q0 -129 -64 -199t-193 -70z" />
    <glyph glyph-name="uhungarumlaut" unicode="&#x171;" horiz-adv-x="569" 
d="M262 -8q-186 0 -186 201v330h34v-329q0 -171 157 -171q75 0 131 48t56 133v319h34v-523h-34v112q-19 -51 -70.5 -85.5t-121.5 -34.5zM214 600l55 147h38l-65 -147h-28zM332 600l55 147h38l-65 -147h-28z" />
    <glyph glyph-name="Uogonek" unicode="&#x172;" horiz-adv-x="674" 
d="M380 -182q-41 0 -64 20t-23 52q0 31 21 59t55 47q-9 -1 -33 -1q-120 0 -188 66.5t-68 191.5v462h36v-459q0 -114 56.5 -172t163.5 -58q114 0 167.5 59.5t53.5 183.5v446h36v-451q0 -194 -136 -248q-62 -25 -96 -53t-34 -69q0 -48 56 -48q25 0 49 9v-27q-23 -10 -52 -10z
" />
    <glyph glyph-name="uogonek" unicode="&#x173;" horiz-adv-x="569" 
d="M461 -182q-41 0 -64 20t-23 52q0 63 82 114h-2v108q-19 -51 -70.5 -85.5t-121.5 -34.5q-186 0 -186 201v330h34v-329q0 -171 157 -171q75 0 131 48t56 133v319h34v-522q-81 -53 -81 -107q0 -22 14.5 -35.5t42.5 -13.5q25 0 49 9v-26q-23 -10 -52 -10z" />
    <glyph glyph-name="Wcircumflex" unicode="&#x174;" horiz-adv-x="915" 
d="M329 771l112 120h34l110 -120h-30l-97 90l-99 -90h-30zM223 0l-191 715h36l176 -663l202 663h25l191 -665l188 665h33l-203 -715h-38l-184 648l-198 -648h-37z" />
    <glyph glyph-name="wcircumflex" unicode="&#x175;" horiz-adv-x="765" 
d="M256 600l111 129h34l109 -129h-30l-96 100l-98 -100h-30zM194 0l-164 523h36l151 -482l153 482h29l149 -482l153 482h34l-166 -523h-41l-144 466l-149 -466h-41z" />
    <glyph glyph-name="Ycircumflex" unicode="&#x176;" horiz-adv-x="565" 
d="M272 0v322l-250 393h41l228 -362l215 362h37l-235 -393v-322h-36zM159 771l112 120h34l110 -120h-30l-97 90l-99 -90h-30z" />
    <glyph glyph-name="ycircumflex" unicode="&#x177;" horiz-adv-x="495" 
d="M142 -182l92 222l-208 483h36l190 -444l181 444h36l-292 -705h-35zM122 600l111 129h34l109 -129h-30l-96 100l-98 -100h-30z" />
    <glyph glyph-name="Ydieresis" unicode="&#x178;" horiz-adv-x="565" 
d="M272 0v322l-250 393h41l228 -362l215 362h37l-235 -393v-322h-36zM204 788q-11 0 -18.5 7.5t-7.5 18.5t7.5 18.5t18.5 7.5t18.5 -7.5t7.5 -18.5t-7.5 -18.5t-18.5 -7.5zM370 788q-11 0 -18.5 7.5t-7.5 18.5t7.5 18.5t18.5 7.5t18.5 -7.5t7.5 -18.5t-7.5 -18.5t-18.5 -7.5
z" />
    <glyph glyph-name="Zacute" unicode="&#x179;" horiz-adv-x="582" 
d="M277 771l69 120h41l-81 -120h-29zM27 0v9l466 676h-430v30h482v-8l-464 -676h458v-31h-512z" />
    <glyph glyph-name="zacute" unicode="&#x17a;" horiz-adv-x="468" 
d="M222 600l71 147h41l-84 -147h-28zM26 0v7l359 487h-329v29h383v-7l-357 -486h350v-30h-406z" />
    <glyph glyph-name="Zdotaccent" unicode="&#x17b;" horiz-adv-x="582" 
d="M27 0v9l466 676h-430v30h482v-8l-464 -676h458v-31h-512zM298 787q-11 0 -18.5 8t-7.5 19t7.5 18.5t18.5 7.5t19 -7.5t8 -18.5t-8 -19t-19 -8z" />
    <glyph glyph-name="zdotaccent" unicode="&#x17c;" horiz-adv-x="468" 
d="M26 0v7l359 487h-329v29h383v-7l-357 -486h350v-30h-406zM244 637q-11 0 -18.5 8t-7.5 19t7.5 18.5t18.5 7.5t19 -7.5t8 -18.5t-8 -19t-19 -8z" />
    <glyph glyph-name="Zcaron" unicode="&#x17d;" horiz-adv-x="582" 
d="M280 771l-111 120h30l99 -91l100 91h29l-113 -120h-34zM27 0v9l466 676h-430v30h482v-8l-464 -676h458v-31h-512z" />
    <glyph glyph-name="zcaron" unicode="&#x17e;" horiz-adv-x="468" 
d="M226 613l-109 129h30l97 -100l97 100h30l-111 -129h-34zM26 0v7l359 487h-329v29h383v-7l-357 -486h350v-30h-406z" />
    <glyph glyph-name="florin" unicode="&#x192;" horiz-adv-x="376" 
d="M30 368v29h92l26 170q24 157 157 157q35 0 68 -11v-30q-36 12 -68 12q-103 0 -123 -129l-26 -169h153v-29h-158l-83 -550h-34l83 550h-87z" />
    <glyph glyph-name="Aringacute" unicode="&#x1fa;" horiz-adv-x="641" 
d="M32 0l264 715h48l266 -715h-36l-85 228h-339l-84 -228h-34zM319 686l-158 -428h317zM316 750q-37 0 -64.5 26.5t-27.5 62.5q0 37 27 64t65 27q39 0 66 -26.5t27 -64.5q0 -36 -27 -62.5t-66 -26.5zM316 772q28 0 47.5 19.5t19.5 47.5q0 29 -19 48.5t-48 19.5
q-27 0 -46.5 -19.5t-19.5 -48.5q0 -28 19.5 -47.5t46.5 -19.5zM296 959l69 120h41l-81 -120h-29z" />
    <glyph glyph-name="aringacute" unicode="&#x1fb;" horiz-adv-x="521" 
d="M225 -8q-82 0 -130.5 38.5t-48.5 108.5q0 157 235 157h130v51q0 80 -35 117t-111 37q-65 0 -108.5 -30t-53.5 -91h-34q9 74 64.5 112.5t132.5 38.5q179 0 179 -184v-347h-34v89q-25 -43 -72.5 -70t-113.5 -27zM227 21q75 0 129.5 40.5t54.5 98.5v108h-130
q-94 0 -147.5 -28t-53.5 -101q0 -57 38 -87.5t109 -30.5zM267 620q28 0 47.5 19.5t19.5 47.5q0 29 -19 48.5t-48 19.5q-27 0 -46.5 -19.5t-19.5 -48.5q0 -28 19.5 -47.5t46.5 -19.5zM267 598q-37 0 -64.5 26.5t-27.5 62.5q0 37 27 64t65 27q39 0 66 -26.5t27 -64.5
q0 -36 -27 -62.5t-66 -26.5zM248 830l69 120h41l-81 -120h-29z" />
    <glyph glyph-name="AEacute" unicode="&#x1fc;" horiz-adv-x="943" 
d="M28 0l359 715h491v-30h-371v-301h301v-31h-301v-322h389v-31h-425v228h-291l-114 -228h-38zM408 685l-213 -427h276v427h-63zM586 771l69 120h41l-81 -120h-29z" />
    <glyph glyph-name="aeacute" unicode="&#x1fd;" horiz-adv-x="909" 
d="M652 -8q-81 0 -136.5 39.5t-80.5 109.5q-17 -70 -75.5 -109.5t-133.5 -39.5q-83 0 -131.5 38t-48.5 108q0 154 232 154h136v54q0 80 -36.5 117.5t-111.5 37.5q-66 0 -109.5 -30t-53.5 -91h-34q9 73 65 112t133 39q152 0 174 -137q27 64 80.5 100.5t123.5 36.5
q99 0 160.5 -66t61.5 -186v-15h-419q1 -115 53 -178.5t151 -63.5q144 0 177 122h34q-18 -72 -74 -112t-137 -40zM228 21q77 0 131.5 44t54.5 115v84h-135q-95 0 -147 -27t-52 -99q0 -57 38 -87t110 -30zM448 292h384q-2 102 -52 155.5t-135 53.5q-83 0 -137 -57t-60 -152z
M437 600l71 147h41l-84 -147h-28z" />
    <glyph glyph-name="Oslashacute" unicode="&#x1fe;" horiz-adv-x="795" 
d="M67 -20l-22 22l96 106q-90 101 -90 245v8q0 152 100 256.5t247 104.5q128 0 223 -82l88 98l22 -22l-87 -97q100 -103 100 -255v-8q0 -152 -99 -257.5t-245 -105.5q-140 0 -238 93zM400 24q133 0 220 95t87 237v8q0 139 -85 232l-438 -486q88 -86 216 -86zM88 353
q0 -129 75 -220l437 484q-85 75 -202 75q-135 0 -222.5 -94.5t-87.5 -236.5v-8zM376 771l69 120h41l-81 -120h-29z" />
    <glyph glyph-name="oslashacute" unicode="&#x1ff;" horiz-adv-x="583" 
d="M58 -19l-22 19l69 77q-63 74 -63 180v8q0 115 73.5 190t177.5 75q94 0 162 -60l63 70l22 -19l-64 -72q65 -73 65 -183v-8q0 -116 -72.5 -191t-177.5 -75q-97 0 -166 64zM292 22q91 0 152.5 64.5t61.5 171.5v8q0 96 -52 159l-308 -345q61 -58 146 -58zM77 257
q0 -91 50 -156l307 345q-58 55 -141 55q-91 0 -153.5 -65t-62.5 -171v-8zM269 600l71 147h41l-84 -147h-28z" />
    <glyph glyph-name="Scommaaccent" unicode="&#x218;" horiz-adv-x="586" 
d="M246 -195l-24 11l58 140l34 -9zM299 -7q-119 0 -183.5 56t-76.5 148h35q26 -173 225 -173q92 0 145.5 46.5t53.5 118.5q0 81 -44.5 116t-158.5 52q-120 17 -173.5 60.5t-53.5 122.5q0 83 61 132.5t161 49.5q94 0 150.5 -44.5t69.5 -124.5h-34q-27 139 -186 139
q-88 0 -137.5 -39t-49.5 -111q0 -65 43.5 -100.5t153.5 -51.5q127 -19 180.5 -61t53.5 -139q0 -84 -64 -140.5t-171 -56.5z" />
    <glyph glyph-name="scommaaccent" unicode="&#x219;" horiz-adv-x="456" 
d="M189 -195l-24 11l58 140l34 -9zM235 -9q-89 0 -141 44.5t-58 118.5h33q8 -61 49.5 -97.5t116.5 -36.5q68 0 106.5 32.5t38.5 83.5q0 55 -31 78.5t-115 39.5q-98 17 -139 47t-41 95q0 60 49.5 97t121.5 37q156 0 177 -136h-33q-21 107 -145 107q-62 0 -100 -29t-38 -76
q0 -50 34.5 -73.5t121.5 -38.5q93 -17 132.5 -47t39.5 -99q0 -63 -48.5 -105t-130.5 -42z" />
    <glyph glyph-name="uni0237" unicode="&#x237;" horiz-adv-x="200" 
d="M6 -186v30q43 4 60 26t17 70v583h34v-581q0 -64 -25.5 -95t-85.5 -33z" />
    <glyph glyph-name="circumflex" unicode="&#x2c6;" horiz-adv-x="400" 
d="M73 600l111 129h34l109 -129h-30l-96 100l-98 -100h-30z" />
    <glyph glyph-name="caron" unicode="&#x2c7;" horiz-adv-x="400" 
d="M182 613l-109 129h30l97 -100l97 100h30l-111 -129h-34z" />
    <glyph glyph-name="breve" unicode="&#x2d8;" horiz-adv-x="400" 
d="M200 614q-49 0 -81 31.5t-36 82.5h30q4 -39 27 -62t60 -23q36 0 60 23t29 62h29q-3 -51 -36.5 -82.5t-81.5 -31.5z" />
    <glyph glyph-name="dotaccent" unicode="&#x2d9;" horiz-adv-x="400" 
d="M200 637q-11 0 -18.5 8t-7.5 19t7.5 18.5t18.5 7.5t19 -7.5t8 -18.5t-8 -19t-19 -8z" />
    <glyph glyph-name="ring" unicode="&#x2da;" horiz-adv-x="400" 
d="M200 625q28 0 47.5 19.5t19.5 47.5q0 29 -19 48.5t-48 19.5q-27 0 -46.5 -19.5t-19.5 -48.5q0 -28 19.5 -47.5t46.5 -19.5zM200 603q-37 0 -64.5 26.5t-27.5 62.5q0 37 27 64t65 27q39 0 66 -26.5t27 -64.5q0 -36 -27 -62.5t-66 -26.5z" />
    <glyph glyph-name="ogonek" unicode="&#x2db;" horiz-adv-x="400" 
d="M213 -182q-40 0 -63 20t-23 52q0 61 80 110h34q-81 -54 -81 -106q0 -22 14.5 -35.5t42.5 -13.5q25 0 49 9v-26q-23 -10 -53 -10z" />
    <glyph glyph-name="tilde" unicode="&#x2dc;" horiz-adv-x="400" 
d="M270 615q-27 0 -71 29t-62 29t-32 -15t-18 -43h-27q5 43 26 65.5t52 22.5q26 0 70 -29.5t63 -29.5q18 0 31.5 15.5t17.5 43.5h27q-5 -43 -26 -65.5t-51 -22.5z" />
    <glyph glyph-name="hungarumlaut" unicode="&#x2dd;" horiz-adv-x="400" 
d="M122 600l55 147h38l-65 -147h-28zM240 600l55 147h38l-65 -147h-28z" />
    <glyph glyph-name="Wgrave" unicode="&#x1e80;" horiz-adv-x="915" 
d="M449 771l-81 120h42l68 -120h-29zM223 0l-191 715h36l176 -663l202 663h25l191 -665l188 665h33l-203 -715h-38l-184 648l-198 -648h-37z" />
    <glyph glyph-name="wgrave" unicode="&#x1e81;" horiz-adv-x="765" 
d="M194 0l-164 523h36l151 -482l153 482h29l149 -482l153 482h34l-166 -523h-41l-144 466l-149 -466h-41zM376 600l-84 147h41l72 -147h-29z" />
    <glyph glyph-name="Wacute" unicode="&#x1e82;" horiz-adv-x="915" 
d="M439 771l69 120h41l-81 -120h-29zM223 0l-191 715h36l176 -663l202 663h25l191 -665l188 665h33l-203 -715h-38l-184 648l-198 -648h-37z" />
    <glyph glyph-name="wacute" unicode="&#x1e83;" horiz-adv-x="765" 
d="M363 600l71 147h41l-84 -147h-28zM194 0l-164 523h36l151 -482l153 482h29l149 -482l153 482h34l-166 -523h-41l-144 466l-149 -466h-41z" />
    <glyph glyph-name="Wdieresis" unicode="&#x1e84;" horiz-adv-x="915" 
d="M375 788q-11 0 -18.5 7.5t-7.5 18.5t7.5 18.5t18.5 7.5t18.5 -7.5t7.5 -18.5t-7.5 -18.5t-18.5 -7.5zM541 788q-11 0 -18.5 7.5t-7.5 18.5t7.5 18.5t18.5 7.5t18.5 -7.5t7.5 -18.5t-7.5 -18.5t-18.5 -7.5zM223 0l-191 715h36l176 -663l202 663h25l191 -665l188 665h33
l-203 -715h-38l-184 648l-198 -648h-37z" />
    <glyph glyph-name="wdieresis" unicode="&#x1e85;" horiz-adv-x="765" 
d="M307 638q-11 0 -18.5 8t-7.5 18t7.5 18t18.5 8t18.5 -7.5t7.5 -18.5t-7.5 -18.5t-18.5 -7.5zM461 638q-11 0 -18.5 7.5t-7.5 18.5t7.5 18.5t18.5 7.5t18.5 -7.5t7.5 -18.5t-7.5 -18.5t-18.5 -7.5zM194 0l-164 523h36l151 -482l153 482h29l149 -482l153 482h34l-166 -523
h-41l-144 466l-149 -466h-41z" />
    <glyph glyph-name="Ygrave" unicode="&#x1ef2;" horiz-adv-x="565" 
d="M272 0v322l-250 393h41l228 -362l215 362h37l-235 -393v-322h-36zM281 771l-81 120h42l68 -120h-29z" />
    <glyph glyph-name="ygrave" unicode="&#x1ef3;" horiz-adv-x="495" 
d="M142 -182l92 222l-208 483h36l190 -444l181 444h36l-292 -705h-35zM241 600l-84 147h41l72 -147h-29z" />
    <glyph glyph-name="uni2009" unicode="&#x2009;" horiz-adv-x="110" 
 />
    <glyph glyph-name="endash" unicode="&#x2013;" horiz-adv-x="489" 
d="M47 264v29h394v-29h-394z" />
    <glyph glyph-name="emdash" unicode="&#x2014;" horiz-adv-x="859" 
d="M47 264v29h765v-29h-765z" />
    <glyph glyph-name="quoteleft" unicode="&#x2018;" horiz-adv-x="188" 
d="M77 553l-33 15l76 152l24 -11z" />
    <glyph glyph-name="quoteright" unicode="&#x2019;" horiz-adv-x="188" 
d="M69 553l-24 11l66 156l34 -14z" />
    <glyph glyph-name="quotesinglbase" unicode="&#x201a;" horiz-adv-x="188" 
d="M69 -70l-24 11l66 156l34 -14z" />
    <glyph glyph-name="quotedblleft" unicode="&#x201c;" horiz-adv-x="305" 
d="M77 553l-33 15l76 152l24 -11zM193 553l-33 15l76 152l24 -11z" />
    <glyph glyph-name="quotedblright" unicode="&#x201d;" horiz-adv-x="305" 
d="M69 553l-24 11l66 156l34 -14zM185 553l-24 11l67 156l33 -14z" />
    <glyph glyph-name="quotedblbase" unicode="&#x201e;" horiz-adv-x="305" 
d="M69 -70l-24 11l66 156l34 -14zM185 -70l-24 11l67 156l33 -14z" />
    <glyph glyph-name="dagger" unicode="&#x2020;" horiz-adv-x="334" 
d="M151 226v321h-121v29h121v139h32v-139h120v-29h-120v-321h-32z" />
    <glyph glyph-name="daggerdbl" unicode="&#x2021;" horiz-adv-x="334" 
d="M151 394v153h-121v29h121v139h32v-139h120v-29h-120v-153h120v-29h-120v-139h-32v139h-121v29h121z" />
    <glyph glyph-name="bullet" unicode="&#x2022;" horiz-adv-x="307" 
d="M153 205q-42 0 -70.5 29t-28.5 71q0 41 28.5 70t70.5 29q43 0 71.5 -28.5t28.5 -70.5t-28.5 -71t-71.5 -29z" />
    <glyph glyph-name="ellipsis" unicode="&#x2026;" horiz-adv-x="628" 
d="M98 -5q-13 0 -21 8.5t-8 20.5t8 20.5t21 8.5q12 0 20 -8.5t8 -20.5t-8 -20.5t-20 -8.5zM314 -5q-12 0 -20.5 8.5t-8.5 20.5t8.5 20.5t20.5 8.5t20.5 -8.5t8.5 -20.5t-8.5 -20.5t-20.5 -8.5zM530 -5q-12 0 -20.5 8.5t-8.5 20.5t8.5 20.5t20.5 8.5t20.5 -8.5t8.5 -20.5
t-8.5 -20.5t-20.5 -8.5z" />
    <glyph glyph-name="perthousand" unicode="&#x2030;" horiz-adv-x="1099" 
d="M195 438q50 0 84 34.5t34 92.5q0 57 -33.5 92t-84.5 35q-50 0 -84 -35t-34 -94q0 -57 34.5 -91t83.5 -34zM195 410q-61 0 -105.5 42.5t-44.5 110.5q0 69 44 113t106 44q63 0 106.5 -43.5t43.5 -111.5q0 -70 -44 -112.5t-106 -42.5zM124 0l467 715h34l-467 -715h-34z
M552 22q50 0 84 34.5t34 92.5q0 57 -33.5 92t-84.5 35q-50 0 -84 -35t-34 -94q0 -57 34.5 -91t83.5 -34zM552 -6q-61 0 -105.5 42.5t-44.5 110.5q0 69 44 113t106 44q63 0 106.5 -43.5t43.5 -111.5q0 -70 -44 -112.5t-106 -42.5zM904 22q50 0 84 34.5t34 92.5q0 57 -33.5 92
t-84.5 35q-50 0 -84 -35t-34 -94q0 -57 34.5 -91t83.5 -34zM904 -6q-61 0 -105.5 42.5t-44.5 110.5q0 69 44 113t106 44q63 0 107 -43.5t44 -111.5q0 -69 -44.5 -112t-106.5 -43z" />
    <glyph glyph-name="uni2032" unicode="&#x2032;" horiz-adv-x="151" 
d="M42 529l32 186h38l-43 -186h-27z" />
    <glyph glyph-name="uni2033" unicode="&#x2033;" horiz-adv-x="261" 
d="M42 529l32 186h38l-43 -186h-27zM152 529l33 186h37l-42 -186h-28z" />
    <glyph glyph-name="guilsinglleft" unicode="&#x2039;" horiz-adv-x="270" 
d="M189 83l-137 178l137 178h36l-136 -178l136 -178h-36z" />
    <glyph glyph-name="guilsinglright" unicode="&#x203a;" horiz-adv-x="270" 
d="M45 83l136 178l-136 178h36l138 -178l-138 -178h-36z" />
    <glyph glyph-name="fraction" unicode="&#x2044;" horiz-adv-x="113" 
d="M-220 0l522 715h31l-522 -715h-31z" />
    <glyph glyph-name="Euro" unicode="&#x20ac;" horiz-adv-x="646" 
d="M31 413v28h67q6 127 74.5 204t184.5 77q101 0 159.5 -52.5t70.5 -146.5h-34q-12 81 -61 125t-135 44q-101 0 -159.5 -67.5t-63.5 -183.5h261l-5 -28h-256v-110h235l-5 -28h-230q5 -118 62.5 -184.5t161.5 -66.5q89 0 141 48.5t65 136.5h33q-13 -102 -75 -159t-164 -57
q-118 0 -186 76.5t-74 205.5h-67v28h67v110h-67z" />
    <glyph glyph-name="trademark" unicode="&#x2122;" horiz-adv-x="649" 
d="M312 404v311h40l108 -261l107 261h40v-311h-28v277l-115 -277h-10l-116 277v-277h-26zM126 404v288h-98v23h223v-23h-97v-288h-28z" />
    <glyph glyph-name="onethird" unicode="&#x2153;" horiz-adv-x="691" 
d="M535 -4q-56 0 -90.5 29t-37.5 73h29q4 -33 29.5 -55t68.5 -22q41 0 64 20t23 55q0 32 -21.5 52t-59.5 20h-27v24h25q35 0 54 18.5t19 46.5q0 30 -21.5 48.5t-55.5 18.5q-39 0 -60.5 -20t-25.5 -53h-28q3 42 33.5 69.5t80.5 27.5q47 0 76.5 -25t29.5 -64q0 -62 -60 -77
q32 -7 52 -29.5t20 -56.5q0 -47 -32 -73.5t-85 -26.5zM119 371v309l-91 -65v29l99 71h23v-344h-31zM28 0l522 715h31l-522 -715h-31z" />
    <glyph glyph-name="twothirds" unicode="&#x2154;" horiz-adv-x="732" 
d="M576 -4q-56 0 -90.5 29t-37.5 73h29q4 -33 29.5 -55t68.5 -22q41 0 64 20t23 55q0 32 -21.5 52t-59.5 20h-27v24h25q35 0 54 18.5t19 46.5q0 30 -21.5 48.5t-55.5 18.5q-39 0 -60.5 -20t-25.5 -53h-28q3 42 33.5 69.5t80.5 27.5q47 0 76.5 -25t29.5 -64q0 -62 -60 -77
q32 -7 52 -29.5t20 -56.5q0 -47 -32 -73.5t-85 -26.5zM23 371v8l130 128q37 36 53 61.5t16 53.5q0 34 -21 53t-56 19q-75 0 -85 -85h-28q4 52 34 80.5t80 28.5q48 0 77 -26t29 -69q0 -35 -17 -63t-59 -67l-102 -97h181v-25h-232zM91 0l522 715h31l-522 -715h-31z" />
    <glyph glyph-name="oneeighth" unicode="&#x215b;" horiz-adv-x="685" 
d="M525 -4q-54 0 -89 25.5t-35 73.5q0 35 22 58t58 31q-28 8 -47 28.5t-19 48.5q0 39 32.5 63t77.5 24t76.5 -24t31.5 -62q0 -29 -17.5 -49.5t-45.5 -28.5q78 -19 78 -88q0 -48 -34 -74t-89 -26zM525 21q42 0 67.5 19.5t25.5 56.5q0 35 -26 55t-66 20t-67.5 -20.5
t-27.5 -55.5q0 -37 26.5 -56t67.5 -19zM526 195q34 0 56 17.5t22 48.5q0 28 -22.5 45.5t-56.5 17.5q-35 0 -57.5 -17.5t-22.5 -46.5q0 -30 24.5 -47.5t56.5 -17.5zM114 371v309l-91 -65v29l99 71h23v-344h-31zM32 0l522 715h31l-522 -715h-31z" />
    <glyph glyph-name="threeeighths" unicode="&#x215c;" horiz-adv-x="722" 
d="M562 -4q-54 0 -89 25.5t-35 73.5q0 35 22 58t58 31q-28 8 -47 28.5t-19 48.5q0 39 32.5 63t77.5 24t76.5 -24t31.5 -62q0 -29 -17.5 -49.5t-45.5 -28.5q78 -19 78 -88q0 -48 -34 -74t-89 -26zM562 21q42 0 67.5 19.5t25.5 56.5q0 35 -26 55t-66 20t-67.5 -20.5
t-27.5 -55.5q0 -37 26.5 -56t67.5 -19zM563 195q34 0 56 17.5t22 48.5q0 28 -22.5 45.5t-56.5 17.5q-35 0 -57.5 -17.5t-22.5 -46.5q0 -30 24.5 -47.5t56.5 -17.5zM82 0l522 715h31l-522 -715h-31zM157 367q-56 0 -90.5 29t-37.5 73h29q4 -33 29.5 -55t68.5 -22q41 0 64 20
t23 55q0 32 -21.5 52t-59.5 20h-27v24h25q35 0 54 18.5t19 46.5q0 30 -21.5 48.5t-55.5 18.5q-38 0 -60 -20.5t-26 -52.5h-28q3 41 33.5 68.5t80.5 27.5q48 0 77 -25t29 -64q0 -60 -60 -77q31 -6 51.5 -28.5t20.5 -56.5q0 -47 -32 -73.5t-85 -26.5z" />
    <glyph glyph-name="fiveeighths" unicode="&#x215d;" horiz-adv-x="709" 
d="M549 -4q-54 0 -89 25.5t-35 73.5q0 35 22 58t58 31q-28 8 -47 28.5t-19 48.5q0 39 32.5 63t77.5 24t76.5 -24t31.5 -62q0 -29 -17.5 -49.5t-45.5 -28.5q78 -19 78 -88q0 -48 -34 -74t-89 -26zM549 21q42 0 67.5 19.5t25.5 56.5q0 35 -26 55t-66 20t-67.5 -20.5
t-27.5 -55.5q0 -37 26.5 -56t67.5 -19zM550 195q34 0 56 17.5t22 48.5q0 28 -22.5 45.5t-56.5 17.5q-35 0 -57.5 -17.5t-22.5 -46.5q0 -30 24.5 -47.5t56.5 -17.5zM143 367q-51 0 -81 26.5t-34 66.5h29q5 -30 26.5 -49t59.5 -19q40 0 63 24.5t23 66.5q0 39 -23.5 64
t-58.5 25q-55 0 -86 -38h-15l1 181h193v-25h-167v-124q28 30 81 30q46 0 76 -31t30 -83q0 -53 -32.5 -84t-84.5 -31zM67 0l522 715h31l-522 -715h-31z" />
    <glyph glyph-name="seveneighths" unicode="&#x215e;" horiz-adv-x="683" 
d="M523 -4q-54 0 -89 25.5t-35 73.5q0 35 22 58t58 31q-28 8 -47 28.5t-19 48.5q0 39 32.5 63t77.5 24t76.5 -24t31.5 -62q0 -29 -17.5 -49.5t-45.5 -28.5q78 -19 78 -88q0 -48 -34 -74t-89 -26zM523 21q42 0 67.5 19.5t25.5 56.5q0 35 -26 55t-66 20t-67.5 -20.5
t-27.5 -55.5q0 -37 26.5 -56t67.5 -19zM524 195q34 0 56 17.5t22 48.5q0 28 -22.5 45.5t-56.5 17.5q-35 0 -57.5 -17.5t-22.5 -46.5q0 -30 24.5 -47.5t56.5 -17.5zM83 371l135 318h-196v26h235v-5l-142 -339h-32zM26 0l522 715h31l-522 -715h-31z" />
    <glyph glyph-name="minus" unicode="&#x2212;" horiz-adv-x="505" 
d="M37 327v30h431v-30h-431z" />
    <glyph glyph-name="approxequal" unicode="&#x2248;" horiz-adv-x="493" 
d="M37 189q5 41 31 66.5t68 25.5q40 0 114.5 -30t107.5 -30q29 0 47 18t21 44h30q-5 -42 -30.5 -67t-67.5 -25q-41 0 -115.5 29.5t-107.5 29.5q-29 0 -46.5 -17.5t-21.5 -43.5h-30zM37 349q5 41 31 66.5t68 25.5q40 0 114.5 -30t107.5 -30q29 0 47 18t21 44h30
q-5 -41 -31 -66.5t-67 -25.5t-115.5 30t-107.5 30q-29 0 -46.5 -17.5t-21.5 -44.5h-30z" />
    <glyph glyph-name="notequal" unicode="&#x2260;" horiz-adv-x="484" 
d="M40 383v30h229l58 125h33l-58 -125h142v-30h-156l-59 -129h215v-30h-229l-57 -126h-32l57 126h-143v30h157l59 129h-216z" />
    <glyph glyph-name="lessequal" unicode="&#x2264;" horiz-adv-x="491" 
d="M433 116l-384 204v10l384 204v-34l-332 -175l332 -175v-34zM49 0v30h384v-30h-384z" />
    <glyph glyph-name="greaterequal" unicode="&#x2265;" horiz-adv-x="491" 
d="M58 116v34l332 175l-332 175v34l384 -204v-10zM58 0v30h384v-30h-384z" />
    <glyph glyph-name="uni24C5" unicode="&#x24c5;" horiz-adv-x="844" 
d="M315 150v418h113q143 0 143 -119v-2q0 -119 -143 -119h-80v-178h-33zM348 354h80q110 0 110 93v2q0 92 -110 92h-80v-187zM421 -9q-153 0 -259.5 105.5t-106.5 260.5q0 153 107 260t261 107q155 0 260.5 -106t105.5 -259q0 -156 -106.5 -262t-261.5 -106zM421 17
q142 0 240.5 98t98.5 244q0 144 -97 241.5t-240 97.5q-142 0 -240.5 -98.5t-98.5 -242.5q0 -145 98.5 -242.5t238.5 -97.5z" />
    <glyph glyph-name="f_i" unicode="&#xfb01;" horiz-adv-x="517" 
d="M399 0v523h34v-523h-34zM416 637q-11 0 -19 8t-8 19t8 18.5t19 7.5t18.5 -7.5t7.5 -18.5t-7.5 -19t-18.5 -8zM107 0v494h-82v29h82v99q0 80 38 117t99 37q30 0 54 -7v-30q-26 8 -53 8q-103 0 -103 -122v-102h156v-29h-156v-494h-35z" />
    <glyph glyph-name="f_l" unicode="&#xfb02;" horiz-adv-x="517" 
d="M107 0v494h-82v29h82v99q0 80 38 117t99 37q30 0 54 -7v-30q-26 8 -53 8q-103 0 -103 -122v-102h156v-29h-156v-494h-35zM399 0v773h35v-773h-35z" />
    <glyph glyph-name="space_uni0326" horiz-adv-x="400" 
d="M171 -195l-24 11l58 140l34 -9z" />
    <glyph glyph-name="caron.alt" horiz-adv-x="292" 
d="M120 619l13 154h37l-23 -154h-27z" />
    <glyph glyph-name="space_uni0326.alt" horiz-adv-x="400" 
d="M205 610l-34 9l68 142l24 -11z" />
    <glyph glyph-name="grave.uc" horiz-adv-x="400" 
d="M188 771l-81 120h42l68 -120h-29z" />
    <glyph glyph-name="dieresis.uc" horiz-adv-x="400" 
d="M117 788q-11 0 -18.5 7.5t-7.5 18.5t7.5 18.5t18.5 7.5t18.5 -7.5t7.5 -18.5t-7.5 -18.5t-18.5 -7.5zM283 788q-11 0 -18.5 7.5t-7.5 18.5t7.5 18.5t18.5 7.5t18.5 -7.5t7.5 -18.5t-7.5 -18.5t-18.5 -7.5z" />
    <glyph glyph-name="macron.uc" horiz-adv-x="400" 
d="M82 794v29h236v-29h-236z" />
    <glyph glyph-name="acute.uc" horiz-adv-x="400" 
d="M183 771l69 120h41l-81 -120h-29z" />
    <glyph glyph-name="circumflex.uc" horiz-adv-x="400" 
d="M72 771l112 120h34l110 -120h-30l-97 90l-99 -90h-30z" />
    <glyph glyph-name="caron.uc" horiz-adv-x="400" 
d="M182 771l-111 120h30l99 -91l100 91h29l-113 -120h-34z" />
    <glyph glyph-name="breve.uc" horiz-adv-x="400" 
d="M200 773q-50 0 -84.5 33t-38.5 84h30q4 -38 30 -63t63 -25t64 25t31 63h29q-3 -50 -39 -83.5t-85 -33.5z" />
    <glyph glyph-name="dotaccent.uc" horiz-adv-x="400" 
d="M200 787q-11 0 -18.5 8t-7.5 19t7.5 18.5t18.5 7.5t19 -7.5t8 -18.5t-8 -19t-19 -8z" />
    <glyph glyph-name="ring.uc" horiz-adv-x="400" 
d="M200 774q28 0 47.5 19.5t19.5 47.5q0 29 -19 48.5t-48 19.5q-27 0 -46.5 -19.5t-19.5 -48.5q0 -28 19.5 -47.5t46.5 -19.5zM200 752q-37 0 -64.5 26.5t-27.5 62.5q0 37 27 64t65 27q39 0 66 -26.5t27 -64.5q0 -36 -27 -62.5t-66 -26.5z" />
    <glyph glyph-name="tilde.uc" horiz-adv-x="400" 
d="M270 773q-27 0 -70.5 30t-61.5 30q-43 0 -51 -59h-27q5 43 26 66t52 23q26 0 69.5 -30t62.5 -30q42 0 50 59h27q-5 -43 -26 -66t-51 -23z" />
    <glyph glyph-name="hungarumlaut.uc" horiz-adv-x="400" 
d="M122 771l50 120h39l-61 -120h-28zM240 771l50 120h39l-61 -120h-28z" />
    <glyph glyph-name="idotaccent" horiz-adv-x="200" 
d="M100 637q-11 0 -19 8t-8 19t8 18.5t19 7.5t18.5 -7.5t7.5 -18.5t-7.5 -19t-18.5 -8zM83 0v523h34v-523h-34z" />
    <glyph glyph-name="registered.alt" horiz-adv-x="844" 
d="M304 154v418h113q143 0 143 -112v-2q0 -96 -107 -109l132 -195h-36l-130 191h-83v-191h-32zM336 371h81q110 0 110 86v3q0 46 -28 65.5t-82 19.5h-81v-174zM421 -9q-153 0 -259.5 105.5t-106.5 260.5q0 153 107 260t261 107q155 0 260.5 -106t105.5 -259
q0 -156 -106.5 -262t-261.5 -106zM421 17q142 0 240.5 98t98.5 244q0 144 -97 241.5t-240 97.5q-142 0 -240.5 -98.5t-98.5 -242.5q0 -145 98.5 -242.5t238.5 -97.5z" />
    <glyph glyph-name="dollar.old" horiz-adv-x="575" 
d="M272 -134v128q-107 5 -164 58.5t-67 138.5h35q24 -158 196 -168v326q-108 17 -157 59t-49 116q0 77 56.5 125t149.5 51v89h30v-90q84 -4 135.5 -46.5t62.5 -115.5h-33q-25 126 -165 133v-294q117 -18 168 -59t51 -133q0 -80 -59.5 -134.5t-159.5 -56.5v-127h-30zM486 183
q0 76 -41 110.5t-143 50.5v-321q86 2 135 46.5t49 113.5zM99 526q0 -60 39 -94.5t134 -50.5v290q-80 -3 -126.5 -41t-46.5 -104z" />
    <glyph glyph-name="Euro.old" horiz-adv-x="641" 
d="M30 400v28h65q6 123 72.5 197.5t178.5 74.5q98 0 155 -51t69 -142h-34q-11 78 -58.5 121t-131.5 43q-98 0 -154.5 -65.5t-61.5 -177.5h253l-5 -28h-248v-106h228l-5 -28h-223q5 -114 60.5 -178.5t156.5 -64.5q86 0 136.5 47t63.5 133h32q-12 -99 -72.5 -154.5
t-159.5 -55.5q-114 0 -180 74t-72 199h-65v28h65v106h-65z" />
    <glyph glyph-name="sterling.old" horiz-adv-x="580" 
d="M49 325v28h71q-26 92 -26 151q0 88 58 142t150 54q90 0 141.5 -46.5t59.5 -126.5h-33q-22 143 -168 143q-77 0 -124.5 -45.5t-47.5 -120.5q0 -57 26 -151h232v-28h-224q21 -78 21 -136q0 -46 -21 -90q38 -2 115.5 -38.5t117.5 -36.5q99 0 107 112h32q-4 -65 -41 -104
t-95 -39q-49 0 -129 38t-113 38q-35 0 -56 -19t-26 -50h-33q5 34 27 61t59 35q24 45 24 93q0 50 -24 136h-80z" />
    <glyph glyph-name="yen.old" horiz-adv-x="521" 
d="M60 309v28h176l-212 357h39l200 -340l187 340h35l-198 -357h173v-28h-181v-104h181v-28h-181v-177h-35v177h-184v28h184v104h-184z" />
    <glyph glyph-name="zero.old" horiz-adv-x="615" 
d="M308 22q102 0 163 70.5t61 196.5v44q0 122 -62.5 193t-162.5 71t-162 -71t-62 -195v-43q0 -125 62 -195.5t163 -70.5zM307 -8q-115 0 -187 80.5t-72 214.5v44q0 135 72 215t187 80q116 0 188 -79t72 -214v-44q0 -136 -71.5 -216.5t-188.5 -80.5z" />
    <glyph glyph-name="one.old" horiz-adv-x="345" 
d="M189 0v578l-164 -112v33l173 119h26v-618h-35z" />
    <glyph glyph-name="two.old" horiz-adv-x="518" 
d="M25 0v9l253 225q75 67 109 113.5t34 106.5q0 68 -42.5 105.5t-115.5 37.5q-74 0 -122 -44t-58 -125h-33q8 91 66.5 144.5t146.5 53.5q87 0 140 -46t53 -126q0 -66 -37.5 -117t-119.5 -124l-208 -183h379v-30h-445z" />
    <glyph glyph-name="three.old" horiz-adv-x="548" 
d="M274 -103q-107 0 -171 59t-68 144h32q7 -75 60 -124.5t147 -49.5q90 0 141 44.5t51 128.5q0 72 -48 119t-133 47h-53v30h49q77 0 117 41.5t40 103.5q0 70 -42.5 113.5t-118.5 43.5q-77 0 -125.5 -45t-56.5 -115h-32q6 81 65.5 135t148.5 54q90 0 143 -52.5t53 -133.5
q0 -60 -34 -102t-90 -56q66 -13 109 -62t43 -121q0 -94 -62.5 -148t-164.5 -54z" />
    <glyph glyph-name="four.old" horiz-adv-x="581" 
d="M405 -97v168h-377v11l360 536h52v-517h100v-30h-100v-168h-35zM76 101h329v492z" />
    <glyph glyph-name="five.old" horiz-adv-x="538" 
d="M256 -103q-98 0 -157 52t-66 129h32q9 -65 58 -108.5t133 -43.5q91 0 144 56t53 151q0 89 -51.5 142.5t-129.5 53.5q-117 0 -183 -83h-14v372h377v-30h-347v-296q26 28 71 47t100 19q92 0 152.5 -61t60.5 -164q0 -108 -64 -172t-169 -64z" />
    <glyph glyph-name="six.old" horiz-adv-x="563" 
d="M289 -8q-122 0 -179.5 77t-57.5 204v89q0 184 70 272t188 88q77 0 126 -39.5t61 -111.5h-33q-12 58 -51.5 90t-104.5 32q-102 0 -161.5 -78.5t-60.5 -248.5v-63q21 63 79.5 98t125.5 35q108 0 168 -61.5t60 -158.5q0 -99 -63.5 -161.5t-166.5 -62.5zM289 21q88 0 141 54
t53 140q0 89 -50 141t-146 52q-81 0 -138.5 -50.5t-57.5 -133.5t50.5 -143t147.5 -60z" />
    <glyph glyph-name="seven.old" horiz-adv-x="483" 
d="M138 -97l283 686h-396v29h440v-7l-291 -708h-36z" />
    <glyph glyph-name="eight.old" horiz-adv-x="558" 
d="M279 -7q-98 0 -165.5 53t-67.5 149q0 73 46.5 121.5t120.5 65.5q-60 16 -98 57.5t-38 104.5q0 79 60 128.5t142 49.5t142 -49.5t60 -126.5q0 -65 -36 -106.5t-96 -57.5q74 -17 119 -64t45 -121q0 -97 -67 -150.5t-167 -53.5zM279 23q89 0 144 45t55 130q0 79 -56.5 123.5
t-140.5 44.5q-83 0 -141.5 -45.5t-58.5 -124.5q0 -83 56.5 -128t141.5 -45zM282 395q71 0 117.5 39.5t46.5 111.5q0 64 -47.5 105.5t-119.5 41.5t-119.5 -41.5t-47.5 -107.5q0 -69 51.5 -109t118.5 -40z" />
    <glyph glyph-name="nine.old" horiz-adv-x="563" 
d="M265 -104q-81 0 -138.5 43.5t-69.5 119.5h34q11 -62 57.5 -97.5t118.5 -35.5q102 0 155.5 74.5t54.5 244.5v71q-21 -64 -79 -99t-125 -35q-108 0 -168 61.5t-60 158.5q0 99 63.5 161.5t165.5 62.5q122 0 180 -76.5t58 -206.5v-94q0 -353 -247 -353zM276 211
q81 0 138.5 50.5t57.5 135.5q0 84 -50.5 142t-147.5 58q-88 0 -141 -54t-53 -140q0 -88 50.5 -140t145.5 -52z" />
    <glyph glyph-name="dollar.tab" 
d="M284 -135v129q-110 5 -168.5 60t-69.5 143h35q24 -164 203 -174v337q-111 19 -161.5 61.5t-50.5 118.5q0 80 58 129t154 53v91h30v-92q87 -4 139.5 -48t64.5 -120h-34q-26 131 -170 138v-304q122 -18 174.5 -60.5t52.5 -136.5q0 -83 -61.5 -139t-165.5 -58v-128h-30z
M506 189q0 78 -43 114t-149 53v-333q89 2 140.5 48.5t51.5 117.5zM106 542q0 -62 40 -97t138 -53v300q-84 -3 -131 -42t-47 -108z" />
    <glyph glyph-name="Euro.tab" 
d="M34 413v28h61q2 131 63.5 206t172.5 75q184 0 209 -194h-34q-23 164 -175 164q-96 0 -147 -65.5t-53 -185.5h233l-5 -28h-228v-110h207l-5 -28h-202q5 -251 200 -251q160 0 187 179h33q-13 -101 -69 -155.5t-151 -54.5q-112 0 -173 74t-63 208h-61v28h61v110h-61z" />
    <glyph glyph-name="sterling.tab" 
d="M54 334v29h74q-27 91 -27 157q0 91 58.5 146.5t150.5 55.5t144 -48t61 -131h-35q-22 148 -170 148q-77 0 -125 -47.5t-48 -123.5q0 -61 28 -157h239v-29h-231q22 -77 22 -139q0 -51 -23 -94q37 -3 117 -40t120 -37q49 0 76.5 30t30.5 86h33q-5 -68 -42 -107.5t-96 -39.5
q-48 0 -131 39.5t-117 39.5q-35 0 -56 -20t-26 -52h-33q5 36 27.5 64t61.5 35q24 45 24 96q0 58 -24 139h-83z" />
    <glyph glyph-name="yen.tab" 
d="M100 318v29h182l-217 368h39l204 -349l191 349h36l-203 -368h180v-29h-187v-107h187v-29h-187v-182h-35v182h-190v29h190v107h-190z" />
    <glyph glyph-name="zero.tab" 
d="M302 24q206 0 206 258v156q0 119 -55 186.5t-154 67.5q-98 0 -151.5 -67t-53.5 -191v-154q0 -126 54 -191t154 -65zM302 -7q-114 0 -179.5 75t-65.5 211v155q0 136 64.5 212t177.5 76t179 -75t66 -209v-156q0 -138 -63 -213.5t-179 -75.5z" />
    <glyph glyph-name="one.tab" 
d="M334 0v672l-236 -186v36l242 193h29v-715h-35z" />
    <glyph glyph-name="two.tab" 
d="M57 0v9l289 295q62 62 90 116t28 112q0 77 -45.5 118.5t-121.5 41.5t-125 -45t-59 -132h-33q8 97 67.5 152t149.5 55t146.5 -50t56.5 -141q0 -119 -131 -248l-253 -252h398v-31h-457z" />
    <glyph glyph-name="three.tab" 
d="M296 -7q-103 0 -165.5 59t-66.5 144h34q7 -75 57 -123.5t141 -48.5q89 0 139 45t50 128q0 72 -44 117t-128 45h-50v31h47q76 0 114 42t38 103q0 69 -42 112.5t-116 43.5q-76 0 -124 -44.5t-56 -113.5h-32q5 81 64.5 135t147.5 54q89 0 141 -53t52 -133
q0 -58 -32.5 -101.5t-87.5 -57.5q65 -13 104.5 -60t39.5 -120q0 -95 -61.5 -149.5t-163.5 -54.5z" />
    <glyph glyph-name="four.tab" 
d="M411 0v167h-365v11l347 537h53v-517h96v-31h-96v-167h-35zM94 198h317v491z" />
    <glyph glyph-name="five.tab" 
d="M287 -7q-99 0 -158.5 53.5t-66.5 131.5h34q9 -66 57.5 -110t132.5 -44q94 0 146.5 55.5t52.5 150.5q0 89 -53 144.5t-133 55.5q-115 0 -183 -83h-14v368h383v-31h-351v-289q26 27 70.5 46.5t99.5 19.5q93 0 155 -63.5t62 -167.5q0 -109 -64.5 -173t-169.5 -64z" />
    <glyph glyph-name="six.tab" 
d="M311 -7q-123 0 -183.5 78t-60.5 208v73q0 190 70.5 280t192.5 90q79 0 131 -39t64 -117h-34q-22 125 -163 125q-224 0 -225 -331v-48q22 65 82 101t128 36q111 0 172.5 -63.5t61.5 -162.5q0 -102 -65 -166t-171 -64zM311 23q91 0 145 55t54 144q0 91 -51.5 144t-149.5 53
q-83 0 -141.5 -51t-58.5 -137q0 -87 51 -147.5t151 -60.5z" />
    <glyph glyph-name="seven.tab" 
d="M201 0l281 685h-401v30h447v-7l-289 -708h-38z" />
    <glyph glyph-name="eight.tab" 
d="M301 -7q-100 0 -168 54t-68 150q0 74 48 123.5t124 65.5q-62 14 -101 55.5t-39 104.5q0 79 60 127.5t144 48.5t143.5 -48.5t59.5 -125.5q0 -65 -37 -106t-98 -56q76 -16 121.5 -64t45.5 -123q0 -98 -66.5 -152t-168.5 -54zM301 24q91 0 144.5 45t53.5 131q0 79 -56 124.5
t-140 45.5t-142.5 -46.5t-58.5 -125.5q0 -84 56 -129t143 -45zM304 400q72 0 118 38.5t46 109.5q0 63 -47 103.5t-120 40.5t-120.5 -40t-47.5 -106q0 -68 51.5 -107t119.5 -39z" />
    <glyph glyph-name="nine.tab" 
d="M283 -7q-83 0 -140.5 42t-72.5 121h36q14 -64 60.5 -98t117.5 -34q107 0 161 68t55 242v63q-23 -63 -83.5 -97t-130.5 -34q-109 0 -170 62.5t-61 163.5q0 104 65 167t171 63q122 0 183 -77t61 -203v-105q0 -187 -64 -265.5t-188 -78.5zM289 295q85 0 145.5 50t60.5 133
q0 89 -52 151.5t-152 62.5q-91 0 -145.5 -55t-54.5 -144q0 -90 51 -144t147 -54z" />
    <glyph glyph-name="cent.tab" 
d="M300 -135v128q-100 5 -165 76.5t-65 187.5v8q0 116 65.5 188t164.5 77v99h29v-99q78 -4 134.5 -48.5t66.5 -119.5h-34q-9 62 -56 98.5t-111 39.5v-478q68 4 116 45t59 110h32q-12 -80 -68.5 -130t-138.5 -54v-128h-29zM105 257q0 -105 54.5 -167.5t140.5 -67.5v478
q-86 -5 -140.5 -67.5t-54.5 -167.5v-8z" />
    <glyph glyph-name="percent.tab" horiz-adv-x="800" 
d="M204 435q51 0 85 34.5t34 93.5q0 58 -34 93t-85 35q-50 0 -84.5 -35t-34.5 -94q0 -58 34.5 -92.5t84.5 -34.5zM204 407q-61 0 -106 43t-45 111q0 69 44.5 114t106.5 45q64 0 108 -44t44 -113q0 -70 -45 -113t-107 -43zM150 0l467 715h34l-467 -715h-34zM596 23
q51 0 85 34.5t34 93.5q0 58 -34 93t-85 35q-50 0 -84.5 -35.5t-34.5 -94.5q0 -58 34.5 -92t84.5 -34zM596 -6q-62 0 -107 43t-45 112t45 113.5t107 44.5q63 0 107.5 -44t44.5 -112q0 -70 -44.5 -113.5t-107.5 -43.5z" />
    <glyph glyph-name="perthousand.tab" horiz-adv-x="1000" 
d="M188 452q46 0 77.5 33.5t31.5 86.5q0 54 -31 88t-78 34t-78.5 -34.5t-31.5 -88.5q0 -52 31.5 -85.5t78.5 -33.5zM188 424q-59 0 -100.5 41.5t-41.5 105.5q0 66 41.5 108.5t100.5 42.5t100 -42t41 -108q0 -65 -41.5 -106.5t-99.5 -41.5zM81 0l467 715h34l-467 -715h-34z
M479 22q47 0 78.5 34t31.5 87t-31.5 87t-78.5 34t-78 -34t-31 -88q0 -53 31 -86.5t78 -33.5zM479 -6q-57 0 -99 41.5t-42 106.5t41.5 107.5t99.5 42.5q60 0 101 -42t41 -107q0 -66 -41.5 -107.5t-100.5 -41.5zM813 22q46 0 77.5 34t31.5 87t-31 87t-78 34t-78 -34t-31 -88
q0 -53 31 -86.5t78 -33.5zM813 -6q-58 0 -99.5 41.5t-41.5 106.5t41.5 107.5t99.5 42.5q59 0 100 -42t41 -107q0 -66 -41 -107.5t-100 -41.5z" />
    <glyph glyph-name="plus.tab" 
d="M284 113v214h-199v30h199v215h32v-215h200v-30h-200v-214h-32z" />
    <glyph glyph-name="minus.tab" 
d="M85 327v30h431v-30h-431z" />
    <glyph glyph-name="multiply.tab" 
d="M128 150l-21 21l166 164l-166 166l21 21l165 -165l165 165l21 -21l-165 -166l165 -164l-21 -21l-165 165z" />
    <glyph glyph-name="divide.tab" 
d="M300 143q-12 0 -20.5 8.5t-8.5 20.5t8.5 20.5t20.5 8.5t20.5 -8.5t8.5 -20.5t-8.5 -20.5t-20.5 -8.5zM85 327v30h431v-30h-431zM300 484q-12 0 -20.5 8.5t-8.5 19.5q0 12 8.5 20.5t20.5 8.5t20.5 -8.5t8.5 -20.5q0 -11 -8.5 -19.5t-20.5 -8.5z" />
    <glyph glyph-name="equal.tab" 
d="M98 224v30h404v-30h-404zM98 383v30h404v-30h-404z" />
    <glyph glyph-name="less.tab" 
d="M488 110l-384 207v10l384 207v-34l-333 -178l333 -178v-34z" />
    <glyph glyph-name="greater.tab" 
d="M113 110v34l333 178l-333 178v34l384 -207v-10z" />
    <glyph glyph-name="florin.tab" 
d="M111 368v29h124l24 156q26 171 173 171q42 0 71 -12v-30q-32 13 -70 13q-119 0 -140 -143l-24 -155h185v-29h-190l-84 -550h-34l84 550h-119z" />
    <glyph glyph-name="plusminus.tab" 
d="M284 123v209h-199v30h199v210h32v-210h200v-30h-200v-209h-32zM85 0v30h431v-30h-431z" />
    <glyph glyph-name="notequal.tab" 
d="M98 383v30h229l58 125h33l-58 -125h142v-30h-156l-59 -129h215v-30h-229l-57 -126h-32l57 126h-143v30h157l59 129h-216z" />
    <glyph glyph-name="approxequal.tab" 
d="M91 189q5 41 31 66.5t68 25.5q40 0 114.5 -30t107.5 -30q29 0 47 18t21 44h30q-5 -42 -30.5 -67t-67.5 -25q-41 0 -115.5 29.5t-107.5 29.5q-29 0 -46.5 -17.5t-21.5 -43.5h-30zM91 349q5 41 31 66.5t68 25.5q40 0 114.5 -30t107.5 -30q29 0 47 18t21 44h30
q-5 -41 -31 -66.5t-67 -25.5t-115.5 30t-107.5 30q-29 0 -46.5 -17.5t-21.5 -44.5h-30z" />
    <glyph glyph-name="lessequal.tab" 
d="M488 116l-384 204v10l384 204v-34l-332 -175l332 -175v-34zM104 0v30h384v-30h-384z" />
    <glyph glyph-name="greaterequal.tab" 
d="M113 116v34l332 175l-332 175v34l384 -204v-10zM113 0v30h384v-30h-384z" />
    <glyph glyph-name="parenleft.tab" horiz-adv-x="300" 
d="M228 -148q-157 197 -157 460q0 264 157 461h35q-157 -207 -157 -461q0 -253 157 -460h-35z" />
    <glyph glyph-name="parenright.tab" horiz-adv-x="300" 
d="M38 -148q157 207 157 460q0 254 -157 461h35q157 -197 157 -461q0 -263 -157 -460h-35z" />
    <glyph glyph-name="bracketleft.tab" horiz-adv-x="300" 
d="M80 -148v924h179v-28h-145v-868h145v-28h-179z" />
    <glyph glyph-name="bracketright.tab" horiz-adv-x="300" 
d="M41 -148v28h145v868h-145v28h179v-924h-179z" />
    <glyph glyph-name="braceleft.tab" horiz-adv-x="300" 
d="M259 -145q-94 0 -134.5 45t-18.5 148l26 120q13 59 -13.5 94.5t-90.5 39.5v28q64 4 90.5 39.5t13.5 94.5l-26 121q-22 103 18.5 147.5t134.5 44.5v-28q-77 -1 -107.5 -36.5t-12.5 -126.5l26 -123q23 -113 -85 -147q108 -34 85 -147l-26 -123q-18 -90 13.5 -126t106.5 -37
v-28z" />
    <glyph glyph-name="braceright.tab" horiz-adv-x="300" 
d="M41 -145v28q75 1 107 37t13 126l-25 123q-24 112 84 147q-108 35 -84 147l25 123q19 91 -12 126.5t-108 36.5v28q94 0 134.5 -44.5t18.5 -147.5l-26 -121q-13 -59 13.5 -94.5t90.5 -39.5v-28q-64 -4 -90.5 -39.5t-13.5 -94.5l26 -120q22 -103 -18.5 -148t-134.5 -45z" />
    <glyph glyph-name="period.tab" horiz-adv-x="300" 
d="M150 -5q-12 0 -20.5 8.5t-8.5 20.5t8.5 20.5t20.5 8.5t20.5 -8.5t8.5 -20.5t-8.5 -20.5t-20.5 -8.5z" />
    <glyph glyph-name="comma.tab" horiz-adv-x="300" 
d="M108 -113l-25 12l66 160l34 -15z" />
    <glyph glyph-name="colon.tab" horiz-adv-x="300" 
d="M150 -5q-12 0 -20.5 8.5t-8.5 20.5t8.5 20.5t20.5 8.5t20.5 -8.5t8.5 -20.5t-8.5 -20.5t-20.5 -8.5zM150 337q-12 0 -20.5 8.5t-8.5 20.5t8.5 20.5t20.5 8.5t20.5 -8.5t8.5 -20.5t-8.5 -20.5t-20.5 -8.5z" />
    <glyph glyph-name="semicolon.tab" horiz-adv-x="300" 
d="M99 -113l-25 12l66 160l34 -15zM152 337q-12 0 -20 8.5t-8 20.5t8 20.5t20 8.5q13 0 21 -8.5t8 -20.5t-8 -20.5t-21 -8.5z" />
    <glyph glyph-name="space.tab" horiz-adv-x="300" 
 />
    <glyph glyph-name="dollar.oldtab" 
d="M287 -134v128q-107 5 -164 58.5t-67 138.5h34q24 -158 197 -168v326q-108 17 -157 59t-49 116q0 77 56.5 125t149.5 51v89h30v-90q84 -4 135.5 -46.5t62.5 -115.5h-33q-25 126 -165 133v-294q118 -18 168.5 -59t50.5 -133q0 -80 -59.5 -134.5t-159.5 -56.5v-127h-30z
M501 183q0 76 -41 110.5t-143 50.5v-321q86 2 135 46.5t49 113.5zM114 526q0 -60 39 -94.5t134 -50.5v290q-80 -3 -126.5 -41t-46.5 -104z" />
    <glyph glyph-name="Euro.oldtab" 
d="M33 400v28h62q2 127 63.5 199.5t170.5 72.5q90 0 141.5 -49.5t63.5 -139.5h-33q-24 160 -172 160q-95 0 -146.5 -63.5t-53.5 -179.5h235l-5 -28h-230v-106h209l-5 -28h-204q2 -118 52.5 -180.5t147.5 -62.5q157 0 183 176h33q-12 -99 -68 -152.5t-148 -53.5
q-109 0 -170 72t-64 201h-62v28h62v106h-62z" />
    <glyph glyph-name="sterling.oldtab" 
d="M59 325v28h72q-26 85 -26 151q0 88 58 142t149 54t142 -46.5t60 -126.5h-34q-21 143 -168 143q-77 0 -124.5 -45.5t-47.5 -120.5q0 -60 27 -151h232v-28h-224q21 -78 21 -136q0 -48 -22 -90q38 -2 115.5 -38.5t117.5 -36.5q48 0 76 29t31 83h32q-4 -65 -41 -104t-95 -39
q-49 0 -128.5 38t-112.5 38q-36 0 -57 -19t-26 -50h-33q5 34 27.5 61t59.5 35q23 43 23 93q0 57 -24 136h-80z" />
    <glyph glyph-name="yen.oldtab" 
d="M100 309v28h176l-210 357h39l197 -340l186 340h34l-196 -357h174v-28h-181v-104h181v-28h-181v-177h-35v177h-184v28h184v104h-184z" />
    <glyph glyph-name="zero.oldtab" 
d="M301 22q101 0 153.5 65t52.5 186v77q0 113 -55.5 180t-152.5 67t-151 -66t-54 -183v-78q0 -119 54.5 -183.5t152.5 -64.5zM301 -8q-112 0 -177 74.5t-65 203.5v78q0 129 64 203.5t176 74.5q111 0 177 -74.5t66 -201.5v-77q0 -132 -63 -206.5t-178 -74.5z" />
    <glyph glyph-name="one.oldtab" 
d="M332 0v577l-228 -174v34l236 181h26v-618h-34z" />
    <glyph glyph-name="two.oldtab" 
d="M67 0v9l252 225q75 67 109 113.5t34 106.5q0 68 -42.5 105.5t-115.5 37.5q-74 0 -122 -44t-58 -125h-33q8 91 67 144.5t146 53.5t140 -46t53 -126q0 -66 -37.5 -117t-119.5 -124l-208 -183h380v-30h-445z" />
    <glyph glyph-name="three.oldtab" 
d="M299 -103q-107 0 -171 59t-68 144h32q7 -75 60 -124.5t147 -49.5q90 0 141 44.5t51 128.5q0 72 -48 119t-133 47h-53v30h49q77 0 117 41.5t40 103.5q0 70 -42.5 113.5t-118.5 43.5q-77 0 -125.5 -45t-56.5 -115h-32q6 81 65.5 135t148.5 54q90 0 143 -52.5t53 -133.5
q0 -60 -34 -102t-90 -56q66 -13 109 -62t43 -121q0 -94 -62.5 -148t-164.5 -54z" />
    <glyph glyph-name="four.oldtab" 
d="M414 -97v168h-373v11l354 536h54v-517h97v-30h-97v-168h-35zM89 101h325v492z" />
    <glyph glyph-name="five.oldtab" 
d="M289 -103q-97 0 -156.5 52.5t-67.5 128.5h33q9 -65 58 -108.5t132 -43.5q92 0 145 54.5t53 150.5q0 89 -52 143.5t-130 54.5q-116 0 -182 -83h-14v372h377v-30h-347v-296q25 27 70 46.5t100 19.5q92 0 152.5 -62t60.5 -165q0 -108 -64.5 -171t-167.5 -63z" />
    <glyph glyph-name="six.oldtab" 
d="M309 -8q-119 0 -177.5 76.5t-58.5 201.5v95q0 182 69.5 269.5t186.5 87.5q77 0 126 -39.5t61 -111.5h-33q-12 58 -51.5 90t-104.5 32q-101 0 -159.5 -78t-59.5 -249v-63q21 63 78.5 98t123.5 35q108 0 167.5 -61.5t59.5 -158.5q0 -99 -63 -161.5t-165 -62.5zM309 21
q86 0 139 54t53 140q0 89 -50 141t-144 52q-80 0 -137 -50.5t-57 -133.5t50 -143t146 -60z" />
    <glyph glyph-name="seven.oldtab" 
d="M194 -97l285 686h-395v29h439v-7l-293 -708h-36z" />
    <glyph glyph-name="eight.oldtab" 
d="M300 -7q-97 0 -164 53t-67 149q0 74 45.5 122.5t120.5 64.5q-60 16 -97.5 57.5t-37.5 104.5q0 80 59 129t141 49t141 -49.5t59 -126.5q0 -65 -35.5 -106.5t-95.5 -57.5q74 -16 118.5 -63.5t44.5 -121.5q0 -97 -66 -150.5t-166 -53.5zM300 23q88 0 142.5 45t54.5 130
q0 79 -56 123.5t-139 44.5q-82 0 -140 -45.5t-58 -124.5q0 -83 56 -128t140 -45zM303 395q71 0 116.5 39.5t45.5 111.5q0 64 -47 105.5t-118 41.5t-118 -41.5t-47 -107.5q0 -69 50.5 -109t117.5 -40z" />
    <glyph glyph-name="nine.oldtab" 
d="M284 -104q-81 0 -138 43.5t-68 119.5h33q11 -62 57.5 -97.5t117.5 -35.5q100 0 153 75t54 244v71q-21 -65 -78 -99.5t-123 -34.5q-107 0 -167 62t-60 158q0 99 63 161.5t165 62.5q120 0 177.5 -75.5t57.5 -204.5v-100q0 -350 -244 -350zM295 211q80 0 136.5 50.5
t56.5 135.5q0 84 -49.5 142t-145.5 58q-87 0 -140 -54t-53 -140q0 -88 50.5 -140t144.5 -52z" />
    <glyph glyph-name="zero.num" horiz-adv-x="349" 
d="M175 393q51 0 79.5 34.5t28.5 102.5v29q0 65 -29.5 99.5t-79.5 34.5t-78.5 -35t-28.5 -100v-30q0 -67 29 -101t79 -34zM175 367q-64 0 -101.5 42t-37.5 119v29q0 77 37.5 119t100.5 42t101 -41.5t38 -117.5v-30q0 -77 -37 -119.5t-101 -42.5z" />
    <glyph glyph-name="one.num" horiz-adv-x="212" 
d="M111 371v309l-91 -65v29l99 71h23v-344h-31z" />
    <glyph glyph-name="two.num" horiz-adv-x="285" 
d="M20 371v8l130 128q37 36 53 61.5t16 53.5q0 34 -21 53t-56 19q-75 0 -85 -85h-28q4 52 34 80.5t80 28.5q48 0 77 -26t29 -69q0 -35 -17 -63t-59 -67l-102 -97h181v-25h-232z" />
    <glyph glyph-name="three.num" horiz-adv-x="307" 
d="M154 367q-56 0 -90.5 29t-37.5 73h29q4 -33 29.5 -55t68.5 -22q41 0 64 20t23 55q0 32 -21.5 52t-59.5 20h-27v24h25q35 0 54 18.5t19 46.5q0 30 -21.5 48.5t-55.5 18.5q-38 0 -60 -20.5t-26 -52.5h-28q3 41 33.5 68.5t80.5 27.5q48 0 77 -25t29 -64q0 -60 -60 -77
q31 -6 51.5 -28.5t20.5 -56.5q0 -47 -32 -73.5t-85 -26.5z" />
    <glyph glyph-name="four.num" horiz-adv-x="305" 
d="M201 371v77h-182v11l171 256h41v-243h47v-24h-47v-77h-30zM56 472h145v221z" />
    <glyph glyph-name="five.num" horiz-adv-x="291" 
d="M140 367q-51 0 -81 26.5t-34 66.5h29q5 -30 26.5 -49t59.5 -19q40 0 63 24.5t23 66.5q0 39 -23.5 64t-58.5 25q-55 0 -86 -38h-15l1 181h193v-25h-167v-124q28 30 81 30q46 0 76 -31t30 -83q0 -53 -32.5 -84t-84.5 -31z" />
    <glyph glyph-name="six.num" horiz-adv-x="316" 
d="M161 367q-64 0 -93.5 40t-29.5 108v24q0 89 36 134t97 45q89 0 101 -79h-28q-9 55 -75 55q-46 0 -73.5 -36.5t-27.5 -111.5v-14q11 26 39 41.5t60 15.5q53 0 84 -30t31 -79q0 -51 -33.5 -82t-87.5 -31zM161 392q40 0 65.5 24t25.5 63t-24 63.5t-65 24.5q-38 0 -65 -23.5
t-27 -61.5q0 -39 23.5 -64.5t66.5 -25.5z" />
    <glyph glyph-name="seven.num" horiz-adv-x="270" 
d="M77 371l135 318h-196v26h235v-5l-142 -339h-32z" />
    <glyph glyph-name="eight.num" horiz-adv-x="315" 
d="M158 367q-54 0 -89 25.5t-35 72.5q0 36 22 59t58 31q-28 8 -47 28.5t-19 48.5q0 38 32.5 62t77.5 24t76.5 -24t31.5 -61q0 -29 -17.5 -49.5t-45.5 -28.5q78 -19 78 -88q0 -48 -34 -74t-89 -26zM158 392q42 0 67.5 19t25.5 57q0 35 -26 55t-66 20t-67.5 -20.5t-27.5 -55.5
q0 -37 26.5 -56t67.5 -19zM159 566q34 0 56 17.5t22 48.5q0 27 -22.5 44.5t-56.5 17.5q-35 0 -57.5 -17t-22.5 -46q0 -30 24.5 -47.5t56.5 -17.5z" />
    <glyph glyph-name="nine.num" horiz-adv-x="315" 
d="M148 367q-43 0 -73 22.5t-36 62.5h29q14 -60 81 -60q99 0 99 137v24q-12 -27 -39.5 -42t-58.5 -15q-53 0 -84.5 30t-31.5 79q0 51 33.5 82.5t87.5 31.5q63 0 93.5 -40t30.5 -108v-36q0 -168 -131 -168zM153 519q38 0 65 23.5t27 61.5t-24 64t-66 26q-40 0 -65.5 -24.5
t-25.5 -63.5t24 -63t65 -24z" />
    <glyph glyph-name="zero.den" horiz-adv-x="349" 
d="M175 22q51 0 79.5 34.5t28.5 102.5v29q0 65 -29.5 100t-79.5 35t-78.5 -35t-28.5 -101v-30q0 -67 29 -101t79 -34zM175 -4q-64 0 -101.5 42t-37.5 119v29q0 77 37.5 119.5t100.5 42.5t101 -42t38 -118v-30q0 -77 -37 -119.5t-101 -42.5z" />
    <glyph glyph-name="one.den" horiz-adv-x="212" 
d="M111 0v309l-91 -64v29l99 70h23v-344h-31z" />
    <glyph glyph-name="two.den" horiz-adv-x="285" 
d="M20 0v8l130 129q37 36 53 61.5t16 53.5q0 33 -21.5 52t-55.5 19q-75 0 -85 -85h-28q4 52 34 81t80 29q48 0 77 -26.5t29 -69.5q0 -34 -17 -62t-59 -68l-102 -97h181v-25h-232z" />
    <glyph glyph-name="three.den" horiz-adv-x="307" 
d="M154 -4q-56 0 -90.5 29t-37.5 73h29q4 -33 29.5 -55t68.5 -22q41 0 64 20t23 55q0 32 -21.5 52t-59.5 20h-27v24h25q35 0 54 18.5t19 46.5q0 30 -21.5 48.5t-55.5 18.5q-39 0 -60.5 -20t-25.5 -53h-28q3 42 33.5 69.5t80.5 27.5q47 0 76.5 -25t29.5 -64q0 -62 -60 -77
q32 -7 52 -29.5t20 -56.5q0 -47 -32 -73.5t-85 -26.5z" />
    <glyph glyph-name="four.den" horiz-adv-x="305" 
d="M201 0v77h-182v11l171 256h41v-242h47v-25h-47v-77h-30zM56 102h145v220z" />
    <glyph glyph-name="five.den" horiz-adv-x="291" 
d="M140 -4q-51 0 -81 26.5t-34 66.5h29q5 -29 26.5 -48t59.5 -19q40 0 63 24.5t23 65.5q0 39 -23.5 64t-58.5 25q-56 0 -86 -37h-15l1 180h193v-25h-167v-124q28 30 81 30q46 0 76 -31t30 -82q0 -53 -32.5 -84.5t-84.5 -31.5z" />
    <glyph glyph-name="six.den" horiz-adv-x="316" 
d="M161 -4q-63 0 -93 40t-30 108v24q0 90 36 135t97 45q41 0 68 -20.5t33 -59.5h-28q-9 55 -75 55q-46 0 -73.5 -36.5t-27.5 -111.5v-16q10 27 38.5 43.5t60.5 16.5q53 0 84 -30.5t31 -79.5q0 -51 -33.5 -82t-87.5 -31zM161 21q40 0 65.5 24.5t25.5 63.5t-24 63t-65 24
q-38 0 -65 -23.5t-27 -61.5t24 -64t66 -26z" />
    <glyph glyph-name="seven.den" horiz-adv-x="271" 
d="M77 0l135 319h-196v25h235v-5l-142 -339h-32z" />
    <glyph glyph-name="eight.den" horiz-adv-x="315" 
d="M158 -4q-54 0 -89 25.5t-35 73.5q0 35 22 58t58 31q-28 8 -47 28.5t-19 48.5q0 39 32.5 63t77.5 24t76.5 -24t31.5 -62q0 -29 -17.5 -49.5t-45.5 -28.5q78 -19 78 -88q0 -48 -34 -74t-89 -26zM158 21q42 0 67.5 19.5t25.5 56.5q0 35 -26 55t-66 20t-67.5 -20.5
t-27.5 -55.5q0 -37 26.5 -56t67.5 -19zM159 195q34 0 56 17.5t22 48.5q0 28 -22.5 45.5t-56.5 17.5q-35 0 -57.5 -17.5t-22.5 -46.5q0 -30 24.5 -47.5t56.5 -17.5z" />
    <glyph glyph-name="nine.den" horiz-adv-x="315" 
d="M148 -4q-43 0 -73 22.5t-36 62.5h29q14 -59 81 -59q99 0 99 136v24q-12 -27 -39.5 -41.5t-58.5 -14.5q-53 0 -84.5 29.5t-31.5 78.5q0 51 33.5 82.5t87.5 31.5q63 0 93.5 -39.5t30.5 -107.5v-37q0 -168 -131 -168zM153 149q38 0 65 23t27 61q0 39 -24 65t-66 26
q-40 0 -65.5 -24.5t-25.5 -64.5q0 -39 24 -62.5t65 -23.5z" />
    <glyph glyph-name="zero.sub" horiz-adv-x="349" 
d="M175 -64q51 0 79.5 34.5t28.5 102.5v29q0 65 -29.5 100t-79.5 35t-78.5 -35t-28.5 -101v-30q0 -67 29 -101t79 -34zM175 -90q-64 0 -101.5 42t-37.5 119v29q0 77 37.5 119.5t100.5 42.5t101 -42t38 -118v-30q0 -77 -37 -119.5t-101 -42.5z" />
    <glyph glyph-name="one.sub" horiz-adv-x="212" 
d="M111 -86v309l-91 -65v29l99 71h23v-344h-31z" />
    <glyph glyph-name="two.sub" horiz-adv-x="285" 
d="M20 -86v8l130 129q37 36 53 61.5t16 53.5q0 33 -21.5 52t-55.5 19q-75 0 -85 -85h-28q4 52 34 81t80 29q48 0 77 -26.5t29 -69.5q0 -34 -17 -62t-59 -68l-102 -97h181v-25h-232z" />
    <glyph glyph-name="three.sub" horiz-adv-x="307" 
d="M154 -90q-56 0 -90.5 29t-37.5 73h29q4 -33 29.5 -55t68.5 -22q41 0 64 20t23 55q0 32 -21.5 52t-59.5 20h-27v24h25q35 0 54 18.5t19 46.5q0 30 -21.5 48.5t-55.5 18.5q-39 0 -60.5 -20t-25.5 -53h-28q3 42 33.5 69.5t80.5 27.5q47 0 76.5 -25t29.5 -64q0 -62 -60 -77
q32 -7 52 -29.5t20 -56.5q0 -47 -32 -73.5t-85 -26.5z" />
    <glyph glyph-name="four.sub" horiz-adv-x="305" 
d="M201 -86v77h-182v11l171 256h41v-242h47v-25h-47v-77h-30zM56 16h145v220z" />
    <glyph glyph-name="five.sub" horiz-adv-x="291" 
d="M140 -90q-51 0 -81 26.5t-34 66.5h29q5 -30 26.5 -49t59.5 -19q40 0 63 24.5t23 66.5q0 39 -23.5 64t-58.5 25q-56 0 -86 -37h-15l1 180h193v-25h-167v-124q28 30 81 30q46 0 76 -31t30 -82q0 -53 -32.5 -84.5t-84.5 -31.5z" />
    <glyph glyph-name="six.sub" horiz-adv-x="316" 
d="M161 -90q-64 0 -93.5 40t-29.5 108v24q0 90 36 135t97 45q41 0 68 -20.5t33 -59.5h-28q-9 55 -75 55q-46 0 -73.5 -36.5t-27.5 -111.5v-16q10 27 38.5 43.5t60.5 16.5q53 0 84 -30.5t31 -79.5q0 -51 -33.5 -82t-87.5 -31zM161 -65q40 0 65.5 24.5t25.5 63.5t-24 63
t-65 24q-38 0 -65 -23.5t-27 -61.5q0 -39 23.5 -64.5t66.5 -25.5z" />
    <glyph glyph-name="seven.sub" horiz-adv-x="271" 
d="M77 -86l135 319h-196v25h235v-5l-142 -339h-32z" />
    <glyph glyph-name="eight.sub" horiz-adv-x="315" 
d="M158 -90q-54 0 -89 25.5t-35 73.5q0 35 22 58t58 31q-28 8 -47 28.5t-19 48.5q0 39 32.5 63t77.5 24t76.5 -24t31.5 -62q0 -29 -17.5 -49.5t-45.5 -28.5q78 -19 78 -88q0 -48 -34 -74t-89 -26zM158 -65q42 0 67.5 19t25.5 57q0 35 -26 55t-66 20t-67.5 -20.5t-27.5 -55.5
q0 -37 26.5 -56t67.5 -19zM159 109q34 0 56 17.5t22 48.5q0 28 -22.5 45.5t-56.5 17.5q-35 0 -57.5 -17.5t-22.5 -46.5q0 -30 24.5 -47.5t56.5 -17.5z" />
    <glyph glyph-name="nine.sub" horiz-adv-x="315" 
d="M148 -90q-43 0 -73 22.5t-36 62.5h29q14 -60 81 -60q99 0 99 137v24q-12 -27 -39.5 -41.5t-58.5 -14.5q-53 0 -84.5 29.5t-31.5 78.5q0 51 33.5 82.5t87.5 31.5q63 0 93.5 -39.5t30.5 -107.5v-37q0 -168 -131 -168zM153 63q38 0 65 23t27 61q0 39 -24 65t-66 26
q-40 0 -65.5 -24.5t-25.5 -64.5q0 -39 24 -62.5t65 -23.5z" />
    <glyph glyph-name="plus.sub" horiz-adv-x="314" 
d="M143 -42v112h-107v25h107v112h27v-112h108v-25h-108v-112h-27z" />
    <glyph glyph-name="minus.sub" horiz-adv-x="314" 
d="M36 70v25h242v-25h-242z" />
    <glyph glyph-name="zero.sup" horiz-adv-x="349" 
d="M175 451q51 0 79.5 34.5t28.5 102.5v29q0 65 -29.5 99.5t-79.5 34.5t-78.5 -35t-28.5 -100v-30q0 -67 29 -101t79 -34zM175 425q-64 0 -101.5 42t-37.5 119v29q0 77 37.5 119t100.5 42t101 -41.5t38 -117.5v-30q0 -77 -37 -119.5t-101 -42.5z" />
    <glyph glyph-name="one.sup" horiz-adv-x="212" 
d="M111 429v309l-91 -65v29l99 71h23v-344h-31z" />
    <glyph glyph-name="two.sup" horiz-adv-x="285" 
d="M20 429v8l130 128q37 36 53 61.5t16 53.5q0 34 -21 53t-56 19q-75 0 -85 -85h-28q4 52 34 80.5t80 28.5q48 0 77 -26t29 -69q0 -35 -17 -63t-59 -67l-102 -97h181v-25h-232z" />
    <glyph glyph-name="three.sup" horiz-adv-x="307" 
d="M154 425q-56 0 -90.5 29t-37.5 73h29q4 -33 29.5 -55t68.5 -22q41 0 64 20t23 55q0 32 -21.5 52t-59.5 20h-27v24h25q35 0 54 18.5t19 46.5q0 30 -21.5 48.5t-55.5 18.5q-38 0 -60 -20.5t-26 -52.5h-28q3 41 33.5 68.5t80.5 27.5q48 0 77 -25t29 -64q0 -60 -60 -77
q31 -6 51.5 -28.5t20.5 -56.5q0 -47 -32 -73.5t-85 -26.5z" />
    <glyph glyph-name="four.sup" horiz-adv-x="305" 
d="M201 429v77h-182v11l171 256h41v-243h47v-24h-47v-77h-30zM56 530h145v221z" />
    <glyph glyph-name="five.sup" horiz-adv-x="291" 
d="M140 425q-51 0 -81 26.5t-34 66.5h29q5 -30 26.5 -49t59.5 -19q40 0 63 24.5t23 66.5q0 39 -23.5 64t-58.5 25q-55 0 -86 -38h-15l1 181h193v-25h-167v-124q28 30 81 30q46 0 76 -31t30 -83q0 -53 -32.5 -84t-84.5 -31z" />
    <glyph glyph-name="six.sup" horiz-adv-x="316" 
d="M161 425q-64 0 -93.5 40t-29.5 108v24q0 89 36 134t97 45q89 0 101 -79h-28q-9 55 -75 55q-46 0 -73.5 -36.5t-27.5 -111.5v-14q11 26 39 41.5t60 15.5q53 0 84 -30t31 -79q0 -51 -33.5 -82t-87.5 -31zM161 450q40 0 65.5 24t25.5 63t-24 63.5t-65 24.5q-38 0 -65 -23.5
t-27 -61.5q0 -39 23.5 -64.5t66.5 -25.5z" />
    <glyph glyph-name="seven.sup" horiz-adv-x="271" 
d="M77 429l135 318h-196v26h235v-5l-142 -339h-32z" />
    <glyph glyph-name="eight.sup" horiz-adv-x="315" 
d="M158 425q-54 0 -89 25.5t-35 72.5q0 36 22 59t58 31q-28 8 -47 28.5t-19 48.5q0 38 32.5 62t77.5 24t76.5 -24t31.5 -61q0 -29 -17.5 -49.5t-45.5 -28.5q78 -19 78 -88q0 -48 -34 -74t-89 -26zM158 450q42 0 67.5 19t25.5 57q0 35 -26 55t-66 20t-67.5 -20.5t-27.5 -55.5
q0 -37 26.5 -56t67.5 -19zM159 624q34 0 56 17.5t22 48.5q0 27 -22.5 44.5t-56.5 17.5q-35 0 -57.5 -17t-22.5 -46q0 -30 24.5 -47.5t56.5 -17.5z" />
    <glyph glyph-name="nine.sup" horiz-adv-x="315" 
d="M148 425q-43 0 -73 22.5t-36 62.5h29q14 -60 81 -60q99 0 99 137v24q-12 -27 -39.5 -42t-58.5 -15q-53 0 -84.5 30t-31.5 79q0 51 33.5 82.5t87.5 31.5q63 0 93.5 -40t30.5 -108v-36q0 -168 -131 -168zM153 577q38 0 65 23.5t27 61.5t-24 64t-66 26q-40 0 -65.5 -24.5
t-25.5 -63.5t24 -63t65 -24z" />
    <glyph glyph-name="plus.sup" horiz-adv-x="314" 
d="M143 477v111h-107v25h107v112h27v-112h108v-25h-108v-111h-27z" />
    <glyph glyph-name="minus.sup" horiz-adv-x="314" 
d="M36 588v25h242v-25h-242z" />
    <glyph glyph-name="a.alt" horiz-adv-x="593" 
d="M273 -8q-97 0 -164 71t-67 193v8q0 118 70 192.5t169 74.5q74 0 123.5 -40.5t73.5 -101.5v134h34v-523h-34v141q-21 -59 -76 -104t-129 -45zM275 22q84 0 144 64t60 171v8q0 110 -55.5 173t-140.5 63q-87 0 -146.5 -63.5t-59.5 -172.5v-8q0 -109 56.5 -172t141.5 -63z
" />
    <glyph glyph-name="t.alt" horiz-adv-x="307" 
d="M114 0v494h-91v29h91v119h35v-119h133v-29h-133v-494h-35z" />
    <glyph glyph-name="germandbls.alt" horiz-adv-x="583" 
d="M382 -5q-76 0 -121 40.5t-49 99.5h33q5 -46 39.5 -78.5t97.5 -32.5q59 0 94.5 32.5t35.5 89.5q0 20 -7 37.5t-14.5 28t-29 25t-32.5 20.5t-43 23q-41 22 -54.5 29.5t-36 24.5t-29.5 33t-7 37q0 25 18 48.5t43.5 43t51 39.5t43.5 46.5t18 55.5q0 51 -37 80.5t-100 29.5
q-85 0 -133 -54t-48 -146v-547h-34v546q0 104 58.5 167t156.5 63q78 0 124.5 -37.5t46.5 -100.5q0 -41 -27.5 -76.5t-60.5 -56.5t-60.5 -48t-27.5 -53q0 -8 2.5 -14.5t5 -12t10 -12t12.5 -10.5t17 -11t19.5 -11t23.5 -12.5t26 -13.5q40 -22 57 -32.5t41 -31t33.5 -43.5
t9.5 -53q0 -71 -46 -111.5t-120 -40.5z" />
    <glyph glyph-name="aacute.alt" horiz-adv-x="593" 
d="M266 600l71 147h41l-84 -147h-28zM273 -8q-97 0 -164 71t-67 193v8q0 118 70 192.5t169 74.5q74 0 123.5 -40.5t73.5 -101.5v134h34v-523h-34v141q-21 -59 -76 -104t-129 -45zM275 22q84 0 144 64t60 171v8q0 110 -55.5 173t-140.5 63q-87 0 -146.5 -63.5t-59.5 -172.5
v-8q0 -109 56.5 -172t141.5 -63z" />
    <glyph glyph-name="abreve.alt" horiz-adv-x="593" 
d="M273 -8q-97 0 -164 71t-67 193v8q0 118 70 192.5t169 74.5q74 0 123.5 -40.5t73.5 -101.5v134h34v-523h-34v141q-21 -59 -76 -104t-129 -45zM275 22q84 0 144 64t60 171v8q0 110 -55.5 173t-140.5 63q-87 0 -146.5 -63.5t-59.5 -172.5v-8q0 -109 56.5 -172t141.5 -63z
M288 614q-49 0 -81 31.5t-36 82.5h30q4 -39 27 -62t60 -23q36 0 60 23t29 62h29q-3 -51 -36.5 -82.5t-81.5 -31.5z" />
    <glyph glyph-name="acircumflex.alt" horiz-adv-x="593" 
d="M162 600l111 129h34l109 -129h-30l-96 100l-98 -100h-30zM273 -8q-97 0 -164 71t-67 193v8q0 118 70 192.5t169 74.5q74 0 123.5 -40.5t73.5 -101.5v134h34v-523h-34v141q-21 -59 -76 -104t-129 -45zM275 22q84 0 144 64t60 171v8q0 110 -55.5 173t-140.5 63
q-87 0 -146.5 -63.5t-59.5 -172.5v-8q0 -109 56.5 -172t141.5 -63z" />
    <glyph glyph-name="adieresis.alt" horiz-adv-x="593" 
d="M213 638q-11 0 -18.5 8t-7.5 18t7.5 18t18.5 8t18.5 -7.5t7.5 -18.5t-7.5 -18.5t-18.5 -7.5zM367 638q-11 0 -18.5 7.5t-7.5 18.5t7.5 18.5t18.5 7.5t18.5 -7.5t7.5 -18.5t-7.5 -18.5t-18.5 -7.5zM273 -8q-97 0 -164 71t-67 193v8q0 118 70 192.5t169 74.5
q74 0 123.5 -40.5t73.5 -101.5v134h34v-523h-34v141q-21 -59 -76 -104t-129 -45zM275 22q84 0 144 64t60 171v8q0 110 -55.5 173t-140.5 63q-87 0 -146.5 -63.5t-59.5 -172.5v-8q0 -109 56.5 -172t141.5 -63z" />
    <glyph glyph-name="agrave.alt" horiz-adv-x="593" 
d="M273 -8q-97 0 -164 71t-67 193v8q0 118 70 192.5t169 74.5q74 0 123.5 -40.5t73.5 -101.5v134h34v-523h-34v141q-21 -59 -76 -104t-129 -45zM275 22q84 0 144 64t60 171v8q0 110 -55.5 173t-140.5 63q-87 0 -146.5 -63.5t-59.5 -172.5v-8q0 -109 56.5 -172t141.5 -63z
M280 600l-84 147h41l72 -147h-29z" />
    <glyph glyph-name="amacron.alt" horiz-adv-x="593" 
d="M273 -8q-97 0 -164 71t-67 193v8q0 118 70 192.5t169 74.5q74 0 123.5 -40.5t73.5 -101.5v134h34v-523h-34v141q-21 -59 -76 -104t-129 -45zM275 22q84 0 144 64t60 171v8q0 110 -55.5 173t-140.5 63q-87 0 -146.5 -63.5t-59.5 -172.5v-8q0 -109 56.5 -172t141.5 -63z
M174 647v28h230v-28h-230z" />
    <glyph glyph-name="aogonek.alt" horiz-adv-x="593" 
d="M484 -182q-40 0 -63 20t-23 52q0 63 81 114h-1v137q-21 -59 -76 -104t-129 -45q-97 0 -164 71t-67 193v8q0 118 70 192.5t169 74.5q74 0 123.5 -40.5t73.5 -101.5v134h34v-522q-81 -53 -81 -107q0 -22 14.5 -35.5t42.5 -13.5q25 0 49 9v-26q-23 -10 -53 -10zM275 22
q84 0 144 64t60 171v8q0 110 -55.5 173t-140.5 63q-87 0 -146.5 -63.5t-59.5 -172.5v-8q0 -109 56.5 -172t141.5 -63z" />
    <glyph glyph-name="aring.alt" horiz-adv-x="593" 
d="M288 625q28 0 47.5 19.5t19.5 47.5q0 29 -19 48.5t-48 19.5q-27 0 -46.5 -19.5t-19.5 -48.5q0 -28 19.5 -47.5t46.5 -19.5zM288 603q-37 0 -64.5 26.5t-27.5 62.5q0 37 27 64t65 27q39 0 66 -26.5t27 -64.5q0 -36 -27 -62.5t-66 -26.5zM273 -8q-97 0 -164 71t-67 193v8
q0 118 70 192.5t169 74.5q74 0 123.5 -40.5t73.5 -101.5v134h34v-523h-34v141q-21 -59 -76 -104t-129 -45zM275 22q84 0 144 64t60 171v8q0 110 -55.5 173t-140.5 63q-87 0 -146.5 -63.5t-59.5 -172.5v-8q0 -109 56.5 -172t141.5 -63z" />
    <glyph glyph-name="aringacute.alt" horiz-adv-x="593" 
d="M288 620q28 0 47.5 19.5t19.5 47.5q0 29 -19 48.5t-48 19.5q-27 0 -46.5 -19.5t-19.5 -48.5q0 -28 19.5 -47.5t46.5 -19.5zM288 598q-37 0 -64.5 26.5t-27.5 62.5q0 37 27 64t65 27q39 0 66 -26.5t27 -64.5q0 -36 -27 -62.5t-66 -26.5zM273 -8q-97 0 -164 71t-67 193v8
q0 118 70 192.5t169 74.5q74 0 123.5 -40.5t73.5 -101.5v134h34v-523h-34v141q-21 -59 -76 -104t-129 -45zM275 22q84 0 144 64t60 171v8q0 110 -55.5 173t-140.5 63q-87 0 -146.5 -63.5t-59.5 -172.5v-8q0 -109 56.5 -172t141.5 -63zM269 830l69 120h41l-81 -120h-29z" />
    <glyph glyph-name="atilde.alt" horiz-adv-x="593" 
d="M273 -8q-97 0 -164 71t-67 193v8q0 118 70 192.5t169 74.5q74 0 123.5 -40.5t73.5 -101.5v134h34v-523h-34v141q-21 -59 -76 -104t-129 -45zM275 22q84 0 144 64t60 171v8q0 110 -55.5 173t-140.5 63q-87 0 -146.5 -63.5t-59.5 -172.5v-8q0 -109 56.5 -172t141.5 -63z
M356 615q-27 0 -71 29t-62 29t-32 -15t-18 -43h-27q5 43 26 65.5t52 22.5q26 0 70 -29.5t63 -29.5q18 0 31.5 15.5t17.5 43.5h27q-5 -43 -26 -65.5t-51 -22.5z" />
    <glyph glyph-name="tbar.alt" horiz-adv-x="307" 
d="M23 315v27h91v152h-91v29h91v119h35v-119h133v-29h-133v-152h133v-27h-133v-315h-35v315h-91z" />
    <glyph glyph-name="tcaron.alt" horiz-adv-x="307" 
d="M114 0v494h-91v29h91v119h35v-119h133v-29h-133v-494h-35zM235 619l13 154h37l-23 -154h-27z" />
    <glyph glyph-name="tcommaaccent.alt" horiz-adv-x="307" 
d="M86 -195l-24 11l58 140l34 -9zM114 0v494h-91v29h91v119h35v-119h133v-29h-133v-494h-35z" />
    <glyph glyph-name="f.short" horiz-adv-x="314" 
d="M107 0v494h-82v29h82v99q0 80 38 117t99 37q30 0 54 -7v-30q-26 8 -53 8q-103 0 -103 -122v-102h156v-29h-156v-494h-35z" />
    <glyph glyph-name="f_f.short" horiz-adv-x="586" 
d="M107 0v494h-82v29h82v91q0 79 40 116.5t104 37.5q25 0 54 -8v-30q-24 8 -54 8q-49 0 -79 -29t-30 -93v-93h238v99q0 80 38 117t98 37q30 0 54 -7v-30q-26 8 -53 8q-103 0 -103 -122v-102h156v-29h-156v-494h-34v494h-238v-494h-35z" />
    <glyph glyph-name="questiondown.uc" horiz-adv-x="469" 
d="M276 551v-62q0 -37 -14.5 -70t-31 -52t-53.5 -56q-36 -36 -49.5 -50.5t-28.5 -45.5t-15 -65q0 -58 37 -92.5t108 -34.5q72 0 117.5 43.5t50.5 118.5h34q-5 -87 -60.5 -139.5t-142.5 -52.5q-86 0 -132.5 43.5t-46.5 113.5q0 18 2 33t9.5 30.5t11 24t17.5 25t17.5 20.5
t23.5 24l23 23q28 28 39 40t26 33.5t20.5 42t5.5 45.5v60h32zM260 720q12 0 20.5 -8.5t8.5 -20.5q0 -11 -8.5 -19.5t-20.5 -8.5t-20.5 8.5t-8.5 19.5q0 12 8.5 20.5t20.5 8.5z" />
    <glyph glyph-name="exclamdown.uc" horiz-adv-x="263" 
d="M111 0l5 551h28l5 -551h-38zM131 663q-12 0 -20 8.5t-8 19.5q0 12 8 20.5t20 8.5q13 0 21 -8.5t8 -20.5q0 -11 -8 -19.5t-21 -8.5z" />
    <glyph glyph-name="hyphen.uc" horiz-adv-x="355" 
d="M63 320v33h229v-33h-229z" />
    <glyph glyph-name="endash.uc" horiz-adv-x="489" 
d="M47 321v30h394v-30h-394z" />
    <glyph glyph-name="emdash.uc" horiz-adv-x="859" 
d="M47 321v30h765v-30h-765z" />
    <glyph glyph-name="guilsinglleft.uc" horiz-adv-x="270" 
d="M189 121l-137 180l137 181h36l-136 -181l136 -180h-36z" />
    <glyph glyph-name="guilsinglright.uc" horiz-adv-x="270" 
d="M45 121l136 180l-136 181h36l138 -181l-138 -180h-36z" />
    <glyph glyph-name="guillemotleft.uc" horiz-adv-x="415" 
d="M189 121l-137 180l137 181h36l-136 -181l136 -180h-36zM334 121l-137 180l137 181h36l-136 -181l136 -180h-36z" />
    <glyph glyph-name="guillemotright.uc" horiz-adv-x="415" 
d="M45 121l136 180l-136 181h36l138 -181l-138 -180h-36zM190 121l136 180l-136 181h36l138 -181l-138 -180h-36z" />
    <glyph glyph-name="parenleft.uc" horiz-adv-x="281" 
d="M217 -98q-159 192 -159 440q0 249 159 441h35q-159 -201 -159 -441q0 -237 159 -440h-35z" />
    <glyph glyph-name="parenright.uc" horiz-adv-x="281" 
d="M29 -98q159 203 159 440q0 240 -159 441h35q159 -192 159 -441q0 -248 -159 -440h-35z" />
    <glyph glyph-name="bracketleft.uc" horiz-adv-x="331" 
d="M96 -84v862h194v-28h-159v-806h159v-28h-194z" />
    <glyph glyph-name="bracketright.uc" horiz-adv-x="331" 
d="M40 -84v28h160v806h-160v28h194v-862h-194z" />
    <glyph glyph-name="braceleft.uc" horiz-adv-x="353" 
d="M312 -87q-102 0 -145 43t-25 145l18 98q24 133 -117 133v28q141 1 117 133l-18 98q-18 102 25 145t145 43v-28q-85 -1 -119 -34.5t-18 -123.5l17 -101q22 -119 -91 -146q113 -25 91 -146l-17 -101q-16 -90 18 -123.5t119 -34.5v-28z" />
    <glyph glyph-name="braceright.uc" horiz-adv-x="353" 
d="M40 -87v28q86 1 120 34.5t18 123.5l-18 101q-22 121 92 146q-114 27 -92 146l18 101q16 90 -18 123.5t-120 34.5v28q102 0 145.5 -43t25.5 -145l-18 -98q-24 -132 117 -133v-28q-141 0 -117 -133l18 -98q18 -102 -25.5 -145t-145.5 -43z" />
    <glyph glyph-name="slash.uc" horiz-adv-x="383" 
d="M37 -84l271 862h34l-272 -862h-33z" />
    <glyph glyph-name="backslash.uc" horiz-adv-x="383" 
d="M313 -84l-272 862h34l271 -862h-33z" />
    <glyph glyph-name="bar.uc" horiz-adv-x="233" 
d="M101 -84v862h31v-862h-31z" />
    <glyph glyph-name="at.uc" horiz-adv-x="887" 
d="M452 -59q-187 0 -294.5 115t-107.5 279q0 115 57.5 211.5t152 150t201.5 53.5q170 0 274.5 -100.5t104.5 -253.5q0 -121 -47 -181.5t-116 -60.5q-105 0 -110 107q-18 -44 -58.5 -79t-94.5 -35q-69 0 -110.5 45.5t-41.5 122.5q0 96 55 160.5t131 64.5q52 0 87.5 -30
t44.5 -75l10 96h35l-26 -225q-17 -123 78 -123q57 0 93.5 53.5t36.5 158.5q0 143 -92.5 234t-253.5 91q-154 0 -265.5 -111t-111.5 -273q0 -98 40 -179t125.5 -133t202.5 -52q187 0 281 112h36q-39 -61 -122 -102t-195 -41zM418 175q63 0 108 57t45 135q0 67 -33 105.5
t-88 38.5q-61 0 -107 -55.5t-46 -140.5q0 -65 33 -102.5t88 -37.5z" />
    </font>
</defs>
</svg>
